<?xml version="1.0" standalone="no"?>
<!DOCTYPE svg PUBLIC "-//W3C//DTD SVG 1.1//EN" "http://www.w3.org/Graphics/SVG/1.1/DTD/svg11.dtd" >
<svg xmlns="http://www.w3.org/2000/svg">
<metadata>
This is a custom SVG webfont generated by Font Squirrel.
Copyright   : Copyright c 2011 by vernon adams All rights reserved
Designer    : vernon adams
Foundry     : vernon adams
Foundry URL : httpwwwnewtypographycouk
</metadata>
<defs>
<font id="ShantiRegular" horiz-adv-x="776" >
<font-face units-per-em="2048" ascent="1638" descent="-410" />
<missing-glyph horiz-adv-x="525" />
<glyph unicode=" "  horiz-adv-x="525" />
<glyph unicode="&#x09;" horiz-adv-x="525" />
<glyph unicode="&#xa0;" horiz-adv-x="525" />
<glyph unicode="!" horiz-adv-x="530" d="M161 0h208v211h-208v-211zM161 1394h208l-48 -1055h-112z" />
<glyph unicode="&#x22;" horiz-adv-x="762" d="M123 1377h185v-502h-139zM474 875v502h164l-45 -502h-119z" />
<glyph unicode="#" horiz-adv-x="1274" d="M85 393v146h242l54 285h-222v147h250l74 406h161l-76 -406h245l75 406h160l-79 -406h218v-147h-244l-55 -285h225v-146h-252l-74 -393h-160l74 393h-242l-75 -393h-158l74 393h-215zM486 539h243l55 285h-244z" />
<glyph unicode="$" horiz-adv-x="1099" d="M90 285q30 22 58.5 40.5t57.5 39.5q16 -26 40 -52.5t58 -49t78.5 -38t101.5 -18.5v422q-105 32 -176 66.5t-114.5 78t-62 99t-18.5 129.5q0 78 30.5 137.5t82 101t119 65.5t142.5 33v164h124v-161q29 -2 64 -6t72.5 -13.5t74 -24.5t68.5 -38.5t56 -57t37 -78.5l-145 -66 q-15 30 -38 51t-52.5 35t-64 22t-73.5 12v-391q72 -22 142.5 -52t126.5 -74t91 -105.5t35 -146.5t-32 -148.5t-86.5 -108.5t-126.5 -72t-153 -37v-204h-123v200q-66 1 -126 14.5t-111.5 43t-91.5 76t-65 112.5zM305 1009q0 -39 13.5 -67t38 -49t57.5 -37t72 -30v349 q-58 -11 -93.5 -30.5t-55 -43t-26 -48t-6.5 -44.5zM610 212q52 6 89.5 24t61.5 43t35.5 55t11.5 62q0 39 -16 68.5t-43 52.5t-63 40.5t-76 32.5v-378z" />
<glyph unicode="%" horiz-adv-x="1643" d="M82 1008q0 90 19 163t58 125t98 80.5t139 28.5q79 0 135.5 -29.5t93 -81.5t53.5 -123.5t17 -155.5q0 -98 -21.5 -172.5t-61.5 -124.5t-97 -76t-128 -26q-68 0 -124 24.5t-96 74t-62.5 122.5t-22.5 171zM238 1009q0 -44 5 -90t21 -84t46 -62.5t79 -24.5q48 0 77.5 25 t45 63.5t21 85t5.5 88.5q0 54 -7 101.5t-24 83t-45.5 56.5t-72.5 21q-49 0 -79 -24.5t-46 -63t-21 -85t-5 -90.5zM330 -40l826 1458h149l-207 -366l-206 -363l-205 -363l-207 -366h-150zM950 372q0 96 21.5 170t61.5 124.5t96.5 76t125.5 25.5q31 0 66 -7.5t69 -24.5 t65 -46.5t55 -72.5t38 -102.5t14 -137.5q0 -92 -18.5 -165.5t-56.5 -125.5t-95.5 -80t-136.5 -28q-84 0 -142 31.5t-94.5 85t-52.5 125t-16 152.5zM1106 362q0 -48 6 -93.5t22.5 -80t45 -55.5t74.5 -21q48 0 78 23t47 60.5t23 84.5t6 95q0 47 -6.5 94t-23 84.5t-46.5 61 t-76 23.5q-49 0 -78.5 -25.5t-45.5 -66t-21 -89.5t-5 -95z" />
<glyph unicode="&#x26;" horiz-adv-x="1452" d="M97 377q0 77 22 138.5t60 113t90 94.5t111 84q-26 28 -52.5 61.5t-49 74t-36.5 88.5t-14 104q0 72 24.5 130t71.5 99t116 63t158 22q74 0 140 -18t115 -55t77.5 -93.5t28.5 -132.5q0 -68 -26 -124.5t-66 -102.5t-88 -83t-92 -65l328 -334q25 36 43.5 74t32 81.5t22 96.5 t13.5 119h193q-7 -84 -21 -152.5t-36 -127.5t-52.5 -112t-71.5 -105l306 -314h-259l-171 170q-50 -45 -101.5 -81t-108 -60.5t-119 -38t-133.5 -13.5q-108 0 -192.5 29t-143 82t-89 126t-30.5 162zM300 383q0 -61 23.5 -104.5t61.5 -72t86 -42t97 -13.5q58 0 106.5 13 t87.5 33.5t70.5 46t56.5 49.5l-127 126l-124 126l-133 139q-54 -38 -93 -73.5t-63.5 -71.5t-36.5 -74.5t-12 -81.5zM428 1140q0 -57 35 -114.5t100 -123.5q36 23 70.5 49.5t62.5 57t45 65t17 73.5q0 26 -10 50.5t-29.5 44t-50 31.5t-70.5 12q-38 0 -69.5 -11t-54 -30.5 t-34.5 -46t-12 -57.5z" />
<glyph unicode="'" horiz-adv-x="437" d="M149 875v502h163l-45 -502h-118z" />
<glyph unicode="(" horiz-adv-x="579" d="M100 598q0 118 22.5 239.5t58.5 234t81.5 210t90.5 167.5h155q-48 -92 -88.5 -199t-70 -218.5t-45.5 -222t-16 -208.5q0 -107 13.5 -207.5t41 -204t69.5 -214t99 -236.5h-153q-55 93 -102.5 197.5t-82 214.5t-54 223t-19.5 224z" />
<glyph unicode=")" horiz-adv-x="579" d="M67 1449h153q55 -95 102.5 -200.5t82.5 -216.5t54.5 -224.5t19.5 -224.5q0 -118 -22.5 -239t-58.5 -233t-81 -208t-90 -164h-155q48 96 88.5 197.5t69 207.5t44.5 216t16 222q0 108 -13.5 209.5t-41 205t-69.5 214.5t-99 238z" />
<glyph unicode="*" horiz-adv-x="948" d="M109 969v149h232l-130 216l125 77l137 -228l137 228l127 -77l-133 -216h235v-149h-236l133 -215l-126 -77l-137 227l-137 -227l-126 77l130 215h-231z" />
<glyph unicode="+" horiz-adv-x="1122" d="M87 505v160h391v393h164v-393h393v-160h-393v-391h-164v391h-391z" />
<glyph unicode="," horiz-adv-x="519" d="M57 -248l112 492h222l-194 -492h-140z" />
<glyph unicode="-" d="M143 439v167h489v-167h-489z" />
<glyph unicode="." horiz-adv-x="518" d="M143 0v239h231v-239h-231z" />
<glyph unicode="/" horiz-adv-x="792" d="M73 -18l489 1466h157l-485 -1466h-161z" />
<glyph unicode="0" horiz-adv-x="1164" d="M131 695q0 79 7 163.5t25 164.5t50 151.5t82 125t120.5 85t166.5 31.5q90 0 158.5 -29.5t118.5 -80.5t84 -120.5t54 -149.5t28.5 -167t8.5 -174t-8.5 -174t-28.5 -167t-54 -149.5t-84 -120.5t-118.5 -80.5t-158.5 -29.5q-96 0 -166.5 31.5t-120.5 85t-82 125t-50 151.5 t-25 164.5t-7 163.5zM321 695q0 -113 11 -214t40 -176.5t80 -120t131 -44.5q73 0 123 38.5t80 110.5t43 174.5t13 231.5t-13 231.5t-43 174.5t-80 110.5t-123 38.5q-80 0 -131 -44.5t-80 -120t-40 -176.5t-11 -214z" />
<glyph unicode="1" horiz-adv-x="757" d="M42 1130q20 11 50 30l64 44l70 50l67 49l57 43l41 31h165v-1377h-188v932v24v33l1 37q1 20 1 39q1 45 2 96q-81 -72 -156 -122t-129 -81z" />
<glyph unicode="2" horiz-adv-x="1077" d="M99 0v174l344 360q60 63 115 127t97 126t66.5 121t24.5 113q0 37 -11 75.5t-36 70t-66 51.5t-101 20q-62 0 -105 -18.5t-72 -46.5t-47 -61t-30 -63l-164 57q65 154 169 226t265 72q80 0 151 -22.5t124 -69.5t84 -118.5t31 -169.5q0 -60 -19.5 -122t-64 -133.5 t-117 -157.5t-177.5 -195l-239 -246h647v-170h-869z" />
<glyph unicode="3" horiz-adv-x="1115" d="M95 1219q100 94 212.5 139.5t217.5 45.5q88 0 166.5 -24t138 -70t94.5 -113t35 -153q0 -50 -15 -97.5t-45.5 -90t-76 -78t-106.5 -60.5q83 -25 136.5 -67t84 -88.5t42 -93t11.5 -80.5q0 -97 -39.5 -173t-105 -128.5t-151 -80t-178.5 -27.5q-106 0 -214.5 40.5 t-200.5 127.5l68 160q36 -38 79 -67.5t89 -49t92 -29.5t90 -10q55 0 104.5 14.5t87 44t60 75t22.5 108.5q0 78 -33 125t-86.5 72t-120.5 33t-135 8q-5 0 -14.5 -0.5t-18.5 -0.5h-22v165q8 -1 16 -1q7 -1 14 -1h13q68 0 132 10t114 37t80 73.5t30 120.5q0 45 -18 82.5 t-50.5 64.5t-78.5 42t-101 15q-66 0 -147.5 -33.5t-175.5 -107.5z" />
<glyph unicode="4" horiz-adv-x="1149" d="M66 300v204l607 886h202v-918h199v-172h-199v-300h-186v300h-623zM240 472h449v686l-64 -102l-26 -41l-25 -40l-22 -34l-15 -24z" />
<glyph unicode="5" horiz-adv-x="1087" d="M110 214l118 83q18 -41 49 -70t67.5 -47.5t75.5 -27.5t74 -9q83 0 139.5 26t91 68t49 95.5t14.5 107.5q0 132 -74 204t-208 72q-43 0 -79.5 -11.5t-65.5 -28t-51 -35.5t-36 -35l-97 28v743h720v-171h-551l-30 -399q42 26 102 48.5t137 22.5q99 0 178 -32.5t134 -90 t84.5 -137.5t29.5 -174q0 -105 -33.5 -190.5t-97 -146t-155 -94t-207.5 -33.5q-66 0 -126.5 15t-110 44.5t-86 73t-55.5 101.5z" />
<glyph unicode="6" horiz-adv-x="1141" d="M128 615q0 86 9.5 177.5t33.5 179.5t63.5 166.5t99 137.5t142 93.5t190.5 34.5q69 0 149.5 -19.5t171.5 -61.5l-60 -137q-71 29 -134 45t-116 16q-95 0 -159 -36t-105 -103t-61.5 -163t-28.5 -216q24 31 54.5 60t67.5 51t82 35.5t98 13.5q87 0 161 -28t128.5 -83 t85.5 -136t31 -187q0 -114 -35 -202.5t-95.5 -149t-141.5 -92t-172 -31.5q-122 0 -208.5 49t-142.5 134.5t-82 201.5t-26 250zM328 459q0 -63 18 -120.5t51.5 -101.5t82 -70t110.5 -26q49 0 94.5 17.5t80.5 55t56 95t21 137.5q0 48 -11 98.5t-39 92.5t-75 68.5t-120 26.5 q-65 0 -115 -23.5t-84 -62t-52 -87.5t-18 -100z" />
<glyph unicode="7" horiz-adv-x="959" d="M60 1203v174h844v-159l-509 -1218h-215l524 1203h-644z" />
<glyph unicode="8" horiz-adv-x="1163" d="M125 364q0 66 19 119.5t54.5 97t85 79t110.5 64.5q-110 52 -172.5 134t-62.5 187q0 63 25 127t76.5 115.5t131 84t188.5 32.5q95 0 173 -25t134 -71t87 -112t31 -148q0 -105 -64 -188.5t-184 -131.5q46 -22 95.5 -52t90.5 -72t67.5 -99t26.5 -133q0 -78 -28.5 -149 t-85.5 -125t-142.5 -86t-199.5 -32q-91 0 -173.5 23t-145.5 70.5t-100 119.5t-37 171zM318 372q0 -44 14.5 -85t46 -73t81 -51.5t120.5 -19.5q72 0 122.5 20.5t81.5 53.5t45 75t14 86q0 53 -20.5 96.5t-57 77t-86 56.5t-107.5 35q-57 -14 -104 -39t-80.5 -60t-51.5 -78.5 t-18 -93.5zM349 1044q0 -50 18 -89t49.5 -68t73.5 -47.5t91 -26.5q49 8 92 27.5t75 49t50.5 68.5t18.5 86q0 45 -16 82t-46.5 63.5t-74 41t-98.5 14.5q-51 0 -93.5 -13.5t-73.5 -39.5t-48.5 -63.5t-17.5 -84.5z" />
<glyph unicode="9" horiz-adv-x="1133" d="M105 946q0 114 34.5 199.5t93 142.5t136.5 86t165 29q58 0 115.5 -13t109.5 -43t97 -80t78 -123.5t51.5 -173.5t18.5 -231q0 -186 -37.5 -328t-105.5 -237.5t-162 -144.5t-208 -49q-72 0 -153.5 21.5t-170.5 59.5l64 143q73 -32 135.5 -48.5t113.5 -16.5q70 0 128.5 30.5 t101 95.5t68 165.5t30.5 241.5q-64 -80 -138.5 -116.5t-156.5 -36.5q-87 0 -161.5 27.5t-129 81.5t-86 133.5t-31.5 184.5zM295 945q0 -63 17 -114t48.5 -86t77.5 -54t103 -19q59 0 106.5 21t81 56.5t51.5 82.5t18 99q0 67 -18.5 124t-52.5 99t-81 65.5t-104 23.5 t-102.5 -20.5t-77.5 -59.5t-49.5 -94t-17.5 -124z" />
<glyph unicode=":" horiz-adv-x="518" d="M143 0v239h231v-239h-231zM143 780v239h231v-239h-231z" />
<glyph unicode=";" horiz-adv-x="579" d="M97 -233l110 462h196l-183 -462h-123zM191 779v239h231v-239h-231z" />
<glyph unicode="&#x3c;" horiz-adv-x="1164" d="M77 510v141l948 423v-175l-732 -314l732 -296v-178z" />
<glyph unicode="=" horiz-adv-x="1268" d="M160 308v162h948v-162h-948zM160 700v160h948v-160h-948z" />
<glyph unicode="&#x3e;" horiz-adv-x="1164" d="M139 111v178l732 296l-732 314v175l948 -423v-141z" />
<glyph unicode="?" horiz-adv-x="882" d="M65 1348q60 26 139 47.5t174 21.5q98 0 177 -24t134 -70t84.5 -112t29.5 -150q0 -63 -14 -111t-41.5 -91.5t-69.5 -87t-98 -96.5q-43 -40 -70 -68t-42 -55.5t-20.5 -60.5t-5.5 -83v-70h-159v79q0 50 4.5 90t18 77t39 73t67.5 78l79 83q37 39 62.5 77t40 76.5t14.5 80.5 q0 59 -24.5 97t-60.5 59.5t-77 30t-74 8.5q-45 0 -114.5 -14.5t-162.5 -55.5zM256 0h213v211h-213v-211z" />
<glyph unicode="@" horiz-adv-x="1642" d="M98 647q0 122 28 229.5t79.5 196.5t123.5 159t160 118t189 73.5t210 25.5q136 0 257 -42t212 -123.5t144 -201.5t53 -275q0 -106 -29 -198.5t-79.5 -161t-117.5 -108t-143 -39.5t-119.5 46.5t-46.5 138.5q-20 -33 -47 -66t-57.5 -59.5t-72.5 -43t-92 -16.5 q-65 0 -118 23.5t-90.5 67.5t-57.5 105q-15 48 -15 104q0 17 1 35q0 87 28 169t77 145.5t122.5 102t164.5 38.5q51 0 101.5 -23t94.5 -67q1 11 3 23t4 22l4 23l139 -19l-74 -403q-8 -38 -11 -69.5t-3 -55.5q0 -60 21.5 -84t67.5 -24q44 0 84 30.5t71 84t49 126.5t18 159 q0 127 -43 224t-117.5 161.5t-173 97.5t-209.5 33q-146 0 -268.5 -48t-211 -137t-138 -215t-49.5 -282q0 -142 43.5 -254.5t124 -190.5t194 -119t254.5 -41q69 0 133.5 11.5t124 31t115 45t106.5 53.5l31 -111q-110 -67 -234.5 -108t-278.5 -41q-167 0 -303 50.5t-232 144.5 t-148.5 228t-52.5 301zM617 626q2 -97 44 -150t121 -53q42 0 73 15.5t50 41t35 58t27.5 67t19.5 67.5l15 61l36 207q-36 8 -69 14q-28 5 -51.5 10t-37.5 5q-62 0 -111.5 -32.5t-84 -83t-51 -111t-16.5 -116.5z" />
<glyph unicode="A" horiz-adv-x="1295" d="M19 0v64l534 1348h193l527 -1353v-59h-189l-152 396h-583l-154 -396h-176zM414 568h455l-130 360l-95 270l-97 -270z" />
<glyph unicode="B" horiz-adv-x="1269" d="M190 0v1412h455q112 0 200.5 -18.5t150 -61t94 -111t32.5 -167.5q0 -64 -20 -114.5t-52.5 -89t-73.5 -66t-84 -44.5q49 -15 98 -40t87 -64.5t62 -97.5t24 -139q0 -60 -14.5 -110t-37 -89.5t-49 -69t-50.5 -47.5l1 1q-64 -46 -149.5 -65t-175.5 -19h-498zM387 170h291 q137 0 208.5 62.5t71.5 180.5q0 51 -16 93.5t-50.5 74t-87.5 49t-127 17.5h-290v-477zM387 821h250q49 0 99.5 8t91 31t66 65.5t25.5 111.5q0 67 -24 107.5t-64 61.5t-92 27.5t-108 6.5h-244v-419z" />
<glyph unicode="C" horiz-adv-x="1236" d="M105 695q0 93 17.5 184.5t52.5 174.5t87.5 154t121.5 123t154.5 81.5t187.5 29.5q69 0 133.5 -16t120.5 -51t100.5 -92.5t71.5 -139.5l-175 -42q-15 49 -40.5 81t-57.5 51t-70.5 27t-79.5 8q-101 0 -178.5 -47t-130.5 -126t-80 -182.5t-27 -215.5q0 -103 26 -201.5 t80 -175.5t136 -124t194 -47q75 0 161 24.5t186 73.5l66 -154q-120 -61 -228 -90t-204 -29q-106 0 -193.5 28.5t-156.5 78.5t-121 118.5t-86 148.5t-51 168.5t-17 178.5z" />
<glyph unicode="D" horiz-adv-x="1400" d="M190 0v1412h402q72 0 143 -7.5t138.5 -27.5t129 -55t113.5 -91q86 -100 129.5 -235.5t43.5 -289.5q0 -102 -17.5 -187.5t-46.5 -155.5t-66.5 -124.5t-79.5 -93.5q-48 -42 -105.5 -70t-122 -44.5t-136 -23.5t-147.5 -7h-378zM385 171h169q55 0 107.5 6t99.5 18.5 t88.5 32.5t73.5 48q47 43 77.5 97t48 111.5t24.5 113t7 101.5q0 40 -5 94t-19 111t-39.5 113t-65.5 101q-63 69 -149.5 95.5t-206.5 26.5h-210v-1069z" />
<glyph unicode="E" horiz-adv-x="1138" d="M190 0v1412h818v-175h-622v-419h587v-175h-587v-464h631v-179h-827z" />
<glyph unicode="F" horiz-adv-x="1076" d="M191 0v1412h795v-175h-595v-448h559v-175h-559v-614h-200z" />
<glyph unicode="G" horiz-adv-x="1368" d="M108 700q0 129 25.5 234t70.5 187.5t107 143t135 100t153.5 58.5t163.5 19q66 0 137 -15.5t134.5 -53t114.5 -100t78 -155.5l-198 -32q-17 54 -44 89.5t-61 56t-74 28.5t-83 8q-89 0 -171.5 -32t-146 -100.5t-101.5 -175.5t-38 -256q0 -116 25 -217t81 -176t146.5 -118.5 t222.5 -43.5q82 0 139.5 8.5t102.5 17.5h14v576h190v-697q-50 -16 -102.5 -30.5t-111.5 -25.5t-124.5 -17.5t-140.5 -6.5q-165 0 -286.5 54.5t-201 151.5t-118 230t-38.5 290z" />
<glyph unicode="H" horiz-adv-x="1417" d="M191 0v1414h197v-596h641v596h197v-1414h-197v640h-641v-640h-197z" />
<glyph unicode="I" horiz-adv-x="577" d="M191 0v1412h196v-1412h-196z" />
<glyph unicode="J" horiz-adv-x="575" d="M-152 -168l35 131q39 -11 76.5 -18t71.5 -7t63.5 10.5t51 36t33.5 69.5t12 111v1247h194v-1246q0 -104 -24.5 -179t-66.5 -124t-98 -72.5t-120 -23.5q-55 0 -113 16.5t-115 48.5z" />
<glyph unicode="K" horiz-adv-x="1231" d="M191 0v1412h196v-643l107 127l454 516h252l-574 -627l618 -785h-256l-545 706l-56 -70v-636h-196z" />
<glyph unicode="L" horiz-adv-x="1025" d="M190 0v1412h197v-1232h604v-180h-801z" />
<glyph unicode="M" horiz-adv-x="1789" d="M190 0v1412h315l384 -1160l407 1160h303v-1412h-195v735q0 14 0.5 60.5t0.5 106.5l1 126q0 66 2 118l-24 4l-413 -1150h-174l-399 1139l-25 -4q1 -53 2 -117l2 -124q1 -60 1.5 -105.5t0.5 -60.5v-728h-189z" />
<glyph unicode="N" horiz-adv-x="1487" d="M191 0v1412h246l659 -1107l22 5q-1 32 -1.5 73.5t-1.5 86t-1.5 88.5t-1 81.5t-0.5 64.5v38v670h184v-1412h-237l-672 1123l-21 -5q1 -33 1.5 -75t1.5 -87.5t1.5 -91t1.5 -83.5v-67v-39v-675h-181z" />
<glyph unicode="O" horiz-adv-x="1483" d="M112 703q0 98 15.5 191t48 175t83 150.5t120.5 118t160.5 77t202.5 27.5t202.5 -27.5t160.5 -77t120.5 -118t82.5 -150.5t47.5 -175t15.5 -191q0 -96 -14.5 -187t-45.5 -172t-80.5 -149t-119.5 -117t-161.5 -76.5t-207.5 -27.5t-207.5 27.5t-161.5 76.5t-119.5 117 t-81 149t-46 172t-14.5 187zM319 708q0 -113 19.5 -214t67.5 -178t129.5 -122t206.5 -45q124 0 205.5 45t129.5 122t67.5 178t19.5 214q0 117 -20.5 219t-69.5 178t-130 119.5t-202 43.5t-202 -43.5t-130 -119.5t-70 -178t-21 -219z" />
<glyph unicode="P" horiz-adv-x="1160" d="M191 0v1412h417q106 0 196 -21t156 -68.5t103.5 -124.5t37.5 -188q0 -85 -26 -161.5t-87.5 -134.5t-163.5 -92.5t-253 -34.5h-184v-587h-196zM387 757h95q50 0 100.5 1t96.5 8t85.5 22t69 43.5t46 72t16.5 106.5q0 73 -25 118t-66 70.5t-94 34.5t-110 9h-214v-485z" />
<glyph unicode="Q" horiz-adv-x="1467" d="M111 703q0 98 16.5 191t49.5 175t83.5 150.5t119 118t155.5 77t193 27.5q112 0 202 -26.5t159.5 -74.5t119 -114.5t81.5 -146.5t47 -171t15 -187q0 -81 -13.5 -166.5t-46.5 -168t-88.5 -158.5t-139.5 -137q33 -9 73 -22t80.5 -29t78 -33t66.5 -33l-57 -155 q-138 55 -273.5 92.5t-279.5 65.5q-14 -1 -27 -1.5t-27 -0.5q-133 0 -241.5 49t-185 142t-118.5 228t-42 308zM319 700q0 -105 20.5 -204.5t68.5 -176.5t127 -123.5t195 -46.5q86 0 151 24.5t111.5 66.5t77 98t48 117.5t24.5 125.5t7 123q0 132 -26 236.5t-78 177.5 t-130 112t-182 39q-85 0 -148.5 -25.5t-109.5 -68.5t-76 -100.5t-48 -120.5t-25 -128.5t-7 -125.5z" />
<glyph unicode="R" horiz-adv-x="1284" d="M191 1412h433q92 0 180 -18t156.5 -61t110.5 -114t42 -176q0 -68 -18 -122.5t-51.5 -98t-81.5 -75.5t-108 -55q80 -19 126.5 -48.5t73 -72t38 -98t21.5 -126t24 -157t46 -190.5h-210q-21 109 -32.5 196.5t-23.5 155t-28.5 116t-47.5 79.5t-80 45.5t-126 14.5h-248v-607 h-196v1412zM386 755h232q61 0 114 14t92.5 45t62 81.5t22.5 123.5q0 76 -29 120t-75 66.5t-102.5 28t-110.5 5.5h-206v-484z" />
<glyph unicode="S" horiz-adv-x="1095" d="M87 93l64 156q97 -50 180.5 -75t157.5 -25q82 0 141.5 18t98 49.5t57 74t18.5 92.5t-17 87.5t-53.5 67.5t-94.5 57t-139 56q-106 38 -178.5 80.5t-117.5 93t-64.5 111t-19.5 134.5q0 91 34 160.5t93.5 116.5t140 71t173.5 24q97 0 201 -32.5t213 -104.5l-77 -146 q-91 58 -174.5 83.5t-158.5 25.5q-122 0 -188 -51.5t-66 -142.5q0 -51 14 -87t46 -64.5t83.5 -52t127.5 -49.5q133 -45 214 -91t125 -96t58.5 -107t14.5 -126q0 -99 -33.5 -178t-96.5 -134.5t-154.5 -85t-208.5 -29.5q-91 0 -195 28.5t-219 90.5z" />
<glyph unicode="T" horiz-adv-x="1140" d="M35 1237v175h1071v-175h-438v-1237h-195v1237h-438z" />
<glyph unicode="U" horiz-adv-x="1441" d="M174 531v881h196v-893q0 -111 31.5 -183t82 -113t114 -57t127.5 -16q76 0 131 17.5t94 46.5t63 67.5t37.5 80t18 83.5t4.5 79v888h193v-888q0 -124 -39.5 -225.5t-111.5 -173.5t-172.5 -111.5t-221.5 -39.5t-221.5 35.5t-173 105t-112.5 174t-40 242.5z" />
<glyph unicode="V" horiz-adv-x="1212" d="M15 1412h214l238 -734q3 -11 11 -37l18 -61l22 -76l22 -81l58 -209h11l68 214l26 82l24 76l19 60l11 35l243 731h205l-499 -1412h-206z" />
<glyph unicode="W" horiz-adv-x="1898" d="M38 1412h208l91 -353l90 -352l12 -57l18 -87l20 -100l19 -97q9 -45 14 -78.5t5 -44.5l25 -3l29 125l57 230l47 188l43 161l40 148l42 151l46 169h223l202 -750l27 -87q15 -51 29 -104t25 -102t14 -83l26 -2l42 188l18 78l15 70l13 55q6 23 8 33l175 704h199l-389 -1412 h-205l-79 290l-61 224l-61 224q-5 14 -13 49l-18 81l-22 96l-22 96q-9 45 -15 79.5t-6 47.5l-26 2l-115 -454l-201 -735h-201z" />
<glyph unicode="X" horiz-adv-x="1261" d="M12 0l497 737l-452 675h234l349 -534l347 534h225l-458 -674l488 -738h-239l-379 599l-389 -599h-223z" />
<glyph unicode="Y" horiz-adv-x="1174" d="M-9 1412h232l371 -689l369 689h220l-496 -865v-547h-200v547z" />
<glyph unicode="Z" horiz-adv-x="1173" d="M89 0v179l742 1054h-721v179h954v-177l-744 -1055h762v-180h-993z" />
<glyph unicode="[" horiz-adv-x="609" d="M172 -272v1710h368v-134h-196v-1439h196v-137h-368z" />
<glyph unicode="\" horiz-adv-x="792" d="M73 1408h158l243 -712l243 -712h-157z" />
<glyph unicode="]" horiz-adv-x="610" d="M70 -135h195v1439h-195v134h368v-1710h-368v137z" />
<glyph unicode="^" horiz-adv-x="1101" d="M100 523l385 858h129l382 -858h-172l-276 649l-277 -649h-171z" />
<glyph unicode="_" horiz-adv-x="1116" d="M105 -145h907v-128h-907v128z" />
<glyph unicode="`" horiz-adv-x="816" d="M162 1473h230l172 -309h-129z" />
<glyph unicode="a" horiz-adv-x="1039" d="M77 279q0 33 7.5 70t24.5 73t45 69t69 59q44 28 97 43.5t109.5 23t113.5 9t110 1.5h54v74q0 55 -14 92.5t-39 60t-58 32.5t-70 10q-41 0 -85 -9.5t-86 -24.5t-79.5 -33t-66.5 -36l-55 126q40 27 86.5 49t96 38.5t99.5 25.5t97 9q72 0 136.5 -18.5t113 -58t76.5 -101.5 t28 -150v-412q0 -68 3 -123t8 -95q5 -47 12 -83h-169q-3 17 -5.5 63t-4.5 103q-33 -56 -72 -91.5t-81 -56.5t-86 -29t-87 -8q-75 0 -136 20.5t-103.5 59.5t-65.5 94t-23 124zM259 276q0 -28 9 -54.5t28.5 -47.5t49 -34t71.5 -13q72 0 133 21t96 62q19 22 30.5 49t18 61t9 76 t2.5 95h-29q-69 0 -142.5 -5t-135 -26t-101 -64.5t-39.5 -119.5z" />
<glyph unicode="b" horiz-adv-x="1158" d="M158 0v1413h189l-2 -356l-3 -166q21 28 48.5 55t62 48t76.5 34t93 13q117 0 199.5 -41.5t135 -112.5t77 -165t24.5 -200q0 -115 -24.5 -214t-78 -171.5t-137.5 -114t-203 -41.5q-33 0 -68.5 8.5t-72 27t-72 48.5t-66.5 72q-2 -13 -5 -35.5t-5 -45.5q-4 -26 -6 -56h-162z M345 351q0 -34 16 -73t49 -72.5t85 -56t124 -22.5q70 0 119 32t80 86t44.5 124t13.5 147q0 70 -11.5 138.5t-40.5 121.5t-80.5 86t-130.5 33q-53 0 -101 -21t-85.5 -53.5t-59.5 -70.5t-22 -72v-327z" />
<glyph unicode="c" horiz-adv-x="960" d="M98 522q0 133 40 230.5t104 161.5t144.5 95.5t161.5 31.5q57 0 112.5 -15t102.5 -48t82 -86t51 -129l-159 -26q-11 45 -30 75.5t-44 49t-53.5 26t-58.5 7.5q-48 0 -95.5 -21t-86 -66t-62.5 -114t-24 -165q0 -95 15 -169.5t47.5 -126t82.5 -79t119 -27.5q42 0 79.5 7.5 t69.5 20t59 28.5t50 33l57 -129q-77 -54 -164.5 -80t-167.5 -26q-83 0 -161 31t-138 97t-96.5 168t-36.5 245z" />
<glyph unicode="d" horiz-adv-x="1159" d="M100 522q0 106 24 200t76.5 165t135.5 112.5t200 41.5q51 0 93 -13t76.5 -34t62 -48t48.5 -55l-3 166l-2 356h189v-1413h-162q-4 30 -7 56q-3 23 -5 45.5t-4 35.5q-32 -42 -67 -72t-71.5 -48.5t-72 -27t-68.5 -8.5q-119 0 -203.5 41.5t-137.5 114t-77.5 171.5t-24.5 214z M282 516q0 -77 13.5 -147t44.5 -124t79.5 -86t119.5 -32q72 0 124 22.5t85 56t49 72.5t16 73v327q0 34 -22 72t-59.5 70.5t-86 53.5t-100.5 21q-80 0 -131 -33t-80 -86t-40.5 -121.5t-11.5 -138.5z" />
<glyph unicode="e" horiz-adv-x="1043" d="M99 510q0 106 26 202t79.5 169t136.5 116.5t197 43.5q108 0 186 -38t128.5 -102.5t74.5 -151t24 -183.5v-83h-666q1 -69 15.5 -133.5t46.5 -114t84 -79t129 -29.5q92 0 166.5 23t141.5 65l57 -132q-32 -19 -67.5 -37.5t-79.5 -32.5t-98.5 -23t-123.5 -9q-105 0 -189.5 35 t-144 102.5t-91.5 166t-32 225.5zM291 615h464q-2 55 -13 106t-36 89.5t-67 61.5t-105 23q-48 0 -89.5 -14.5t-73 -45t-52 -77t-27.5 -110.5q-1 -5 -1 -14v-19z" />
<glyph unicode="f" horiz-adv-x="686" d="M43 875v131l189 17v39q0 87 14 152.5t48.5 109.5t93 66t147.5 22q42 0 87.5 -7.5t86.5 -18.5l-24 -152q-31 6 -63 10.5t-61 4.5q-46 0 -73.5 -10.5t-42.5 -30.5t-20 -51t-5 -71v-62h229v-149h-229v-875h-189v875h-188z" />
<glyph unicode="g" horiz-adv-x="1166" d="M108 -208q0 48 35 122t114 135l-3 16q-16 1 -37.5 8t-40.5 22.5t-32.5 40.5t-13.5 61q0 107 133 239q-74 45 -109.5 108.5t-35.5 132.5q0 66 26.5 131.5t80 117.5t133 84t185.5 32q92 0 161 -26t124 -71q24 16 53 32.5t62.5 30.5t70.5 23t77 10l30 -205q-16 1 -29 3 l-24 2q-11 1 -17 1q-29 0 -64 -5.5t-66 -14.5q27 -35 34 -68t7 -65q0 -95 -35.5 -161.5t-94 -109t-134 -62t-154.5 -19.5q-100 0 -185 25q-28 -31 -43 -60.5t-15 -45.5q0 -15 2 -26.5t11 -19.5t26.5 -12.5t48.5 -4.5h147q59 0 122 -3t122.5 -12t112.5 -26t93 -44.5t63 -67.5 t23 -95q0 -99 -32.5 -169t-97 -119.5t-160 -76.5t-221.5 -33q-98 0 -181 19.5t-143.5 54t-94.5 74.5t-34 97zM291 -197q0 -51 72 -76.5t202 -25.5q70 0 130 15.5t104 42.5t68.5 70t24.5 118q0 46 -82 69.5t-240 23.5h-95q-47 0 -96 1q-45 -50 -66.5 -121.5t-21.5 -116.5z M291 684q0 -46 15 -84.5t46 -66t78 -43t112 -15.5q76 0 126 19t78.5 50t40 71t11.5 81q0 39 -12.5 76.5t-41.5 67.5t-77 48t-119 18q-49 0 -95 -11.5t-82 -38t-58 -69t-22 -103.5z" />
<glyph unicode="h" horiz-adv-x="1149" d="M159 1412h189v-324l2 -193q63 69 141 107.5t161 38.5q179 0 264.5 -102.5t85.5 -289.5v-649h-186v639q0 45 -8 90.5t-31 82t-63.5 60t-105.5 23.5q-45 0 -80 -10t-61 -26.5t-44.5 -36.5t-30.5 -39q-26 -43 -35 -106.5t-9 -129.5v-547h-189v1412z" />
<glyph unicode="i" horiz-adv-x="552" d="M55 875v149h338v-1024h-186v875h-152zM189 1205v172h222v-172h-222z" />
<glyph unicode="j" horiz-adv-x="558" d="M-3 -272q27 -8 49.5 -13t45.5 -5q29 0 51 7t37 25t22.5 48.5t7.5 77.5v1007h-151v149h340v-1153q0 -65 -14 -122.5t-46 -100.5t-84.5 -68.5t-129.5 -25.5q-36 0 -67 5.5t-61 16.5v152zM199 1205v172h221v-172h-221z" />
<glyph unicode="k" horiz-adv-x="1041" d="M158 0v1412h190v-797h94q20 0 42 0.5t44 0.5q41 34 76 74.5t65 89t55.5 106.5t48.5 138h196q-18 -79 -48.5 -149.5t-70 -135.5t-86.5 -121t-98 -95l332 -523h-211l-276 460h-163v-460h-190z" />
<glyph unicode="l" horiz-adv-x="563" d="M28 1263v149h341v-1026q0 -80 2.5 -129t17 -76t46 -36t89.5 -9l-30 -155q-118 0 -181.5 26.5t-93 82t-34.5 142t-5 206.5v825h-152z" />
<glyph unicode="m" horiz-adv-x="1817" d="M51 875v149h327l10 -151q36 46 74 78t76.5 52.5t75.5 29.5t70 9q63 0 112 -13t86.5 -36.5t65.5 -56t49 -71.5q22 34 53.5 66t71.5 56.5t89.5 39.5t108.5 15q67 0 130 -18t111.5 -60.5t78 -113.5t29.5 -177v-673h-186v663q0 121 -50.5 176.5t-153.5 55.5q-39 0 -71 -8 t-57 -21t-43 -29.5t-29 -32.5q-15 -22 -24.5 -50.5t-14.5 -59t-7 -61t-2 -57.5v-576h-187v673q0 103 -50 162.5t-150 59.5q-41 0 -74 -9.5t-58.5 -24t-43.5 -32t-29 -33.5q-29 -44 -38 -104.5t-9 -127.5v-564h-189v875h-152z" />
<glyph unicode="n" horiz-adv-x="1196" d="M51 875v149h327l10 -150q30 41 61 72.5t68 52.5t81 32t98 11q55 0 116.5 -16.5t114 -58t87 -111.5t34.5 -178v-678h-186v660q0 113 -55.5 174t-156.5 61q-121 0 -189.5 -83.5t-68.5 -243.5v-568h-189v875h-152z" />
<glyph unicode="o" horiz-adv-x="1129" d="M98 503q0 110 27 207.5t84.5 171t147.5 116.5t215 43q123 0 210 -44.5t142.5 -118.5t81 -169.5t25.5 -196.5q0 -117 -30.5 -214.5t-90 -168t-147.5 -109.5t-203 -39q-109 0 -195 38t-145 107t-90.5 165t-31.5 212zM284 504q0 -83 16 -152t49.5 -119t86.5 -78t128 -28 q60 0 111.5 21.5t89 68t58.5 118.5t21 173q0 187 -70 287t-204 100q-56 0 -107.5 -21.5t-91.5 -69t-63.5 -121.5t-23.5 -179z" />
<glyph unicode="p" horiz-adv-x="1159" d="M153 1024h177l13 -153q33 49 72 82t80.5 53t82.5 28t79 8q81 0 154 -33t128 -99t87.5 -166t32.5 -234q0 -135 -33.5 -234t-91.5 -164.5t-134.5 -98t-161.5 -32.5q-94 0 -167.5 36.5t-129.5 93.5l5 -187v-340h-187v1135q0 45 -1 96.5t-2 96.5q-2 52 -3 112zM346 363 q0 -40 16 -82t49 -76.5t82.5 -56.5t117.5 -22q83 0 135 36t81 92t39.5 125.5t10.5 136.5q0 79 -13 148.5t-43 120.5t-79 80.5t-121 29.5q-55 0 -105 -21t-87.5 -53t-60 -70.5t-22.5 -74.5v-313z" />
<glyph unicode="q" horiz-adv-x="1156" d="M101 511q0 136 31.5 236t85.5 165t126.5 97t154.5 32q56 0 103 -15t86 -39.5t70.5 -55t57.5 -61.5l13 155h173q0 -5 -1 -26l-1 -44q0 -22 -0.5 -46.5t-1 -46.5t-1 -38t-0.5 -20v-1220h-186v341q0 24 0.5 51t1.5 53.5t2 49t2 36.5q-70 -71 -149.5 -102.5t-149.5 -31.5 q-88 0 -164 32.5t-132.5 98.5t-88.5 165.5t-32 233.5zM287 516q0 -44 4.5 -89.5t15.5 -88.5t30 -81.5t48.5 -67.5t70.5 -45.5t96 -16.5q76 0 126.5 26.5t81 73t43 110.5t12.5 140q0 39 -2.5 85.5t-11.5 93t-27 89.5t-48.5 76.5t-76 53.5t-110.5 20q-54 0 -93.5 -17 t-67.5 -46.5t-46 -67.5t-28 -80.5t-13.5 -85.5t-3.5 -82z" />
<glyph unicode="r" horiz-adv-x="749" d="M153 1025h175l10 -178q33 53 71.5 90t78 60t77.5 33.5t70 10.5q20 0 43.5 -1.5t44.5 -4.5l-12 -184q-27 5 -51 8t-49 3q-70 0 -120 -23.5t-81.5 -65.5t-46.5 -100t-15 -128v-545h-189v761q0 13 -0.5 46t-1 72t-2 81.5t-2.5 64.5z" />
<glyph unicode="s" horiz-adv-x="922" d="M82 86l59 135q30 -23 66 -40.5t75 -29.5t79.5 -18t78.5 -6q41 0 78 9t64.5 28t44 47.5t16.5 66.5q0 27 -10 48.5t-34.5 41.5t-67 39.5t-106.5 43.5q-71 26 -129.5 52t-100 59.5t-64.5 80t-23 113.5q0 72 30 126t80.5 89t116.5 52.5t137 17.5q90 0 180.5 -27t165.5 -81 l-61 -128q-33 21 -69 37.5t-73 28t-72.5 18t-66.5 6.5q-39 0 -73.5 -8t-60 -23.5t-40.5 -39t-15 -53.5q0 -28 14 -51t40.5 -42.5t65 -37.5t87.5 -35q91 -33 155 -65t104 -68t58 -79.5t18 -100.5q0 -80 -34.5 -139t-90.5 -97t-128 -56.5t-148 -18.5q-96 0 -180.5 25.5 t-165.5 79.5z" />
<glyph unicode="t" horiz-adv-x="700" d="M49 876v149h162l33 244l151 33v-277h238v-149h-238v-602q0 -29 4.5 -56t18 -47t37.5 -32t64 -12q28 0 61.5 4t56.5 9v-138q-31 -8 -75.5 -14.5t-89.5 -6.5q-61 0 -110.5 12.5t-84 43.5t-53 83.5t-18.5 131.5v624h-157z" />
<glyph unicode="u" horiz-adv-x="1147" d="M148 367v657h186v-658q0 -49 9.5 -92.5t32.5 -76t61 -51.5t96 -19q79 0 130.5 26t82 71.5t42.5 107.5t12 134v558h186v-648q0 -94 2.5 -163.5t5.5 -117.5q4 -55 9 -95h-157q-4 17 -8 42q-3 21 -6.5 52.5t-6.5 73.5q-38 -91 -118.5 -139t-183.5 -48q-189 0 -282 99.5 t-93 286.5z" />
<glyph unicode="v" horiz-adv-x="1028" d="M17 1024h203l173 -484l123 -359l122 358l171 485h205l-402 -1024h-207z" />
<glyph unicode="w" horiz-adv-x="1517" d="M39 1024h194l95 -454l86 -408h14l88 353l136 509h214l136 -509l91 -353h15l79 408l101 454h190l-259 -1024h-233l-139 511l-88 353l-88 -353l-139 -511h-233z" />
<glyph unicode="x" horiz-adv-x="1051" d="M36 0l372 528l-353 496h229l249 -379l252 379h218l-362 -502l369 -522h-229l-265 397l-266 -397h-214z" />
<glyph unicode="y" horiz-adv-x="1025" d="M14 1024h206l176 -484l120 -344l121 344l172 484h202l-438 -1112q-18 -47 -42 -99t-57 -95.5t-76 -72t-99 -28.5q-20 0 -43 4t-54 13v139q23 -8 39 -11t27 -3q30 0 51 18t37 48t28.5 68t23.5 77l10 35z" />
<glyph unicode="z" horiz-adv-x="885" d="M85 0v166l489 709h-460v149h670v-154l-498 -721h505v-149h-706z" />
<glyph unicode="{" horiz-adv-x="717" d="M22 516v133q82 7 131.5 26.5t76.5 49.5t35.5 69.5t8.5 87.5v181q0 81 16.5 147.5t58.5 115.5t113.5 77.5t182.5 33.5l8 -131q-64 -8 -104 -26.5t-62.5 -47.5t-30.5 -69t-8 -91v-175q0 -49 -8 -96.5t-31 -89t-64 -75t-107 -54.5q66 -21 107.5 -55t64 -75.5t30.5 -88.5 t8 -94v-113q0 -61 3 -112.5t22 -90t61 -62.5t119 -30l-7 -134q-116 5 -188.5 36.5t-113 83t-55.5 119t-15 144.5v174q0 65 -18 107.5t-51 68.5t-79.5 38.5t-103.5 17.5z" />
<glyph unicode="|" horiz-adv-x="497" d="M167 -477v1954h163v-1954h-163z" />
<glyph unicode="}" horiz-adv-x="717" d="M64 -139q77 6 119 30t61 62.5t22 90t3 112.5v113q0 47 8 94t30.5 88.5t64 75.5t107.5 55q-66 21 -107 54.5t-64 75t-31 89t-8 96.5v175q0 51 -8 91t-30.5 69t-62.5 47.5t-104 26.5l8 131q111 -5 182.5 -33.5t113.5 -77.5t58.5 -115.5t16.5 -147.5v-181q0 -48 8.5 -87.5 t35.5 -69.5t76.5 -49.5t131.5 -26.5v-133q-57 -5 -103.5 -17.5t-79.5 -38.5t-51 -68.5t-18 -107.5v-174q0 -77 -15 -144.5t-55.5 -119t-113.5 -83t-188 -36.5z" />
<glyph unicode="~" horiz-adv-x="1208" d="M120 514q36 100 100.5 157t158.5 57q24 0 61 -9.5t80 -23.5l91 -30l91 -30q45 -14 84 -23.5t66 -9.5q44 0 91.5 31.5t81.5 100.5l64 -78q-18 -67 -47.5 -108.5t-64 -65t-71.5 -31.5t-69 -8q-39 0 -84 9.5t-91.5 23t-92.5 30.5l-86 30l-72 22.5t-52 9.5q-42 0 -91 -34 t-84 -100z" />
<glyph unicode="&#xa2;" horiz-adv-x="953" d="M94 513q0 151 37.5 255.5t101.5 169t148 93t176 28.5h12q7 0 21 -2l74 250h118l-79 -268l37 -21q35 -20 64 -44t52 -45l-89 -121l-22 17q-10 8 -22 16t-28.5 16.5t-40.5 18.5l-211 -718q27 -9 53 -13t54 -4q38 0 72.5 8.5t65 22.5t57 32t49.5 36l49 -128 q-44 -58 -114.5 -95.5t-178.5 -37.5q-35 0 -73.5 5.5t-80.5 15.5l-66 -228h-117l80 276q-43 29 -79.5 71.5t-63 99.5t-41.5 130t-15 164zM286 519q0 -79 15 -151t46 -135l196 665q-74 -8 -123 -39.5t-79 -81t-42.5 -115.5t-12.5 -143z" />
<glyph unicode="&#xa3;" horiz-adv-x="1163" d="M106 648v145h165q-1 18 -1 36q-1 14 -1 29v25q0 57 3.5 118.5t17 120.5t40 111.5t72.5 92t114.5 63t165.5 23.5q58 0 113 -11.5t104 -37t90.5 -66.5t73.5 -101l-144 -66q-29 61 -88 97t-143 36q-71 0 -115 -24t-68.5 -65.5t-33 -97t-8.5 -119.5v-164h311v-145h-311v-232 q0 -22 -4 -55t-11 -69.5t-17 -72.5t-21 -63h653v-156h-951v141l112 15q7 4 13 21.5t11 42t9 53.5t6.5 56t4 50.5t1.5 36.5v232h-163z" />
<glyph unicode="&#xa5;" horiz-adv-x="1202" d="M65 1408h227l313 -686l318 686h214l-374 -733h257v-139h-324v-112h324v-138h-324v-286h-192v286h-325v138h325v112h-325v139h260l-187 366z" />
<glyph unicode="&#xa9;" horiz-adv-x="1647" d="M93 713q0 100 26 193.5t73 175t113.5 148.5t148 114.5t175 74t195.5 26.5q100 0 193.5 -26t174.5 -74t147.5 -114.5t114.5 -148t74 -175t26 -194.5t-26 -194.5t-74 -175t-114.5 -148.5t-147.5 -114.5t-174.5 -73.5t-193.5 -26q-102 0 -195.5 26t-175 74t-148 115 t-113.5 148t-73 174.5t-26 194.5zM197 713q0 -129 49 -242t134 -198t199.5 -134t244.5 -49t244 49t198.5 134t133 198t48.5 242q0 86 -22 165.5t-62.5 149t-97.5 126.5t-126.5 97.5t-149.5 63t-166 22.5q-87 0 -167 -22.5t-149.5 -63t-127 -97.5t-98 -126.5t-63 -149 t-22.5 -165.5zM477 719q0 71 19 150t62.5 142.5t113.5 103t171 39.5q36 0 75 -7.5t75 -26.5t66.5 -51.5t48.5 -81.5l-96 -59q-15 35 -33.5 55t-40 30.5t-46 14t-52.5 3.5q-63 0 -105.5 -28t-68 -73.5t-36.5 -103t-11 -108.5t11 -108.5t36.5 -103t68 -73.5t105.5 -28 q28 0 52.5 3.5t46 14t40 30.5t33.5 55l96 -59q-18 -49 -48.5 -81.5t-66.5 -51.5t-75 -26.5t-75 -7.5q-101 0 -171 39.5t-113.5 103t-62.5 142.5t-19 152z" />
<glyph unicode="&#xad;" d="M143 439v167h489v-167h-489z" />
<glyph unicode="&#xae;" horiz-adv-x="1644" d="M92 714q0 102 26.5 196t74.5 175t115 147.5t148 113.5t173.5 73t191.5 26q100 0 193.5 -26t174.5 -73.5t147.5 -114t114 -147.5t73.5 -175t26 -195q0 -102 -26 -195.5t-74 -175t-114.5 -148.5t-147.5 -114.5t-174 -73.5t-193 -26t-192.5 26t-173.5 73.5t-148 114.5 t-114.5 148.5t-74 175t-26.5 195.5zM196 714q0 -131 49.5 -244.5t134.5 -198.5t198.5 -133.5t242.5 -48.5q130 0 243.5 49t198 133.5t133 198.5t48.5 244q0 127 -48 240.5t-132 198.5t-198 134.5t-245 49.5q-129 0 -242.5 -49t-198.5 -134t-134.5 -198t-49.5 -242zM553 304 v828h260q49 0 101 -9t94.5 -34t69.5 -70t27 -117q0 -24 -7 -51.5t-23 -55.5t-42 -53.5t-63 -44.5q36 -10 59.5 -33.5t39 -55.5t25.5 -70t18 -78.5t17 -80.5t23 -75h-143q-25 97 -38 163t-29.5 106.5t-45 58t-85.5 17.5h-118v-345h-140zM693 1009v-238h118q29 0 56.5 4.5 t49 18t34.5 36.5t13 61t-13 61.5t-34 36t-49 16.5t-58 4h-117z" />
<glyph unicode="&#xb4;" horiz-adv-x="816" d="M249 1165l168 309h219l-256 -309h-131z" />
<glyph unicode="&#x2000;" horiz-adv-x="751" />
<glyph unicode="&#x2001;" horiz-adv-x="1503" />
<glyph unicode="&#x2002;" horiz-adv-x="751" />
<glyph unicode="&#x2003;" horiz-adv-x="1503" />
<glyph unicode="&#x2004;" horiz-adv-x="501" />
<glyph unicode="&#x2005;" horiz-adv-x="375" />
<glyph unicode="&#x2006;" horiz-adv-x="250" />
<glyph unicode="&#x2007;" horiz-adv-x="250" />
<glyph unicode="&#x2008;" horiz-adv-x="187" />
<glyph unicode="&#x2009;" horiz-adv-x="300" />
<glyph unicode="&#x200a;" horiz-adv-x="83" />
<glyph unicode="&#x2010;" d="M143 439v167h489v-167h-489z" />
<glyph unicode="&#x2011;" d="M143 439v167h489v-167h-489z" />
<glyph unicode="&#x2012;" d="M143 439v167h489v-167h-489z" />
<glyph unicode="&#x2013;" horiz-adv-x="1207" d="M149 444v164h908v-164h-908z" />
<glyph unicode="&#x2014;" horiz-adv-x="1906" d="M150 444v164h1606v-164h-1606z" />
<glyph unicode="&#x2018;" horiz-adv-x="517" d="M92 919l198 489h141l-119 -489h-220z" />
<glyph unicode="&#x2019;" horiz-adv-x="501" d="M109 919l111 489h223l-196 -489h-138z" />
<glyph unicode="&#x201c;" horiz-adv-x="878" d="M92 919l198 489h141l-119 -489h-220zM454 919l198 489h141l-119 -489h-220z" />
<glyph unicode="&#x201d;" horiz-adv-x="866" d="M109 919l111 489h223l-196 -489h-138zM474 919l111 489h223l-196 -489h-138z" />
<glyph unicode="&#x2022;" horiz-adv-x="807" d="M106 711q0 72 23.5 130t63.5 98t94 61.5t116 21.5t116 -21.5t94.5 -62t64 -98t23.5 -129.5q0 -71 -23 -128t-63.5 -97.5t-95 -62.5t-116.5 -22t-116 22t-94.5 62.5t-63.5 97.5t-23 128z" />
<glyph unicode="&#x2026;" horiz-adv-x="1752" d="M144 0v248h225v-248h-225zM762 0v248h227v-248h-227zM1382 0v248h226v-248h-226z" />
<glyph unicode="&#x202f;" horiz-adv-x="300" />
<glyph unicode="&#x205f;" horiz-adv-x="375" />
<glyph unicode="&#x20ac;" horiz-adv-x="1265" d="M78 729l43 133h110q19 113 62 207.5t107 162.5t148 105.5t186 37.5q80 0 152 -25.5t127.5 -76.5t90.5 -127.5t40 -178.5h-184q-4 58 -19 98.5t-37 68t-48 43t-50 23.5t-43.5 10t-28.5 2q-56 0 -105.5 -25.5t-90 -72t-70 -111t-45.5 -141.5h452l-43 -133h-422 q-2 -17 -3.5 -34t-1.5 -34q0 -37 6 -74h401l-42 -133h-344q15 -68 40 -126t61 -100.5t84.5 -67t110.5 -24.5q103 0 170 60t81 174l174 -7q-1 -31 -9.5 -72.5t-27.5 -84.5t-50 -84.5t-77 -74.5t-109.5 -53t-146.5 -20q-107 0 -190.5 33.5t-144.5 96t-100.5 151.5t-58.5 199 h-154l41 133h97q-2 17 -3 34.5t-1 35.5q0 14 1 35.5t3 36.5h-139z" />
<glyph unicode="&#x2122;" horiz-adv-x="1603" d="M112 1317v99h500v-99h-207v-617h-95v617h-198zM726 700v716h171l183 -566l189 566h161v-716h-100v622l-25 -92l-184 -530h-94l-176 526l-25 92v-618h-100z" />
<glyph unicode="&#xe000;" horiz-adv-x="1025" d="M0 1025h1025v-1025h-1025v1025z" />
</font>
</defs>
</svg>
