<?xml version="1.0" standalone="no"?>
<!DOCTYPE svg PUBLIC "-//W3C//DTD SVG 1.1//EN" "http://www.w3.org/Graphics/SVG/1.1/DTD/svg11.dtd" >
<svg xmlns="http://www.w3.org/2000/svg">
<metadata>
This is a custom SVG webfont generated by Font Squirrel.
Copyright   : Copyright c 2013 by Alessio Laiso alessiolaisogmailcom Licensed under the SIL Open Font License Version 11 
Designer    : Alessio Laiso
</metadata>
<defs>
<font id="AleoLightItalic" horiz-adv-x="1545" >
<font-face units-per-em="2048" ascent="1649" descent="-399" />
<missing-glyph horiz-adv-x="446" />
<glyph unicode=" "  horiz-adv-x="446" />
<glyph unicode="&#x09;" horiz-adv-x="446" />
<glyph unicode="&#xa0;" horiz-adv-x="446" />
<glyph unicode="!" horiz-adv-x="442" d="M54 79q2 19 11.5 36.5t24 30.5t32.5 20.5t38 7.5q19 0 35.5 -7.5t28 -20.5t17 -30.5t3.5 -36.5q-3 -20 -12.5 -37t-24 -30t-33 -20t-37.5 -7q-40 0 -64 27t-19 67zM170 499q4 57 7 104t6.5 89.5t7.5 83.5t10 87l71 586h96l-72 -586q-6 -46 -12 -87t-12.5 -83.5 t-15.5 -89.5t-19 -104h-67z" />
<glyph unicode="&#x22;" horiz-adv-x="661" d="M135 993l10 157l37 299h85l-37 -299l-28 -157q-4 -17 -12.5 -27t-26.5 -10q-14 0 -21 10t-7 27zM432 993l10 157l37 299h85l-37 -299l-28 -157q-4 -17 -12.5 -27t-26.5 -10q-14 0 -21 10t-7 27z" />
<glyph unicode="#" horiz-adv-x="1181" d="M50 484l1 10q1 5 4 15l5 16h223l133 399h-259l11 39q8 34 49 33h218l140 414q6 19 20 29t32 10h43l-153 -453h305l153 453h43q32 0 28 -31q-1 -8 -3 -12l-139 -410h230l-10 -39q-9 -34 -51 -33h-188l-133 -399h230q31 0 28 -26l-10 -45h-267l-152 -454h-42 q-14 0 -22.5 8.5t-6.5 25.5q1 7 3 11l138 409h-305l-139 -413q-8 -23 -21.5 -32t-30.5 -9h-43l152 454h-187q-14 0 -22 6.5t-5 23.5zM365 525h305l133 399h-305z" />
<glyph unicode="$" horiz-adv-x="1075" d="M27 173l32 40q14 15 31 15q9 0 21.5 -11t30 -28t41.5 -37t57 -38t76.5 -31t100.5 -16l113 651q-67 22 -130 48.5t-109.5 68t-71 102t-12.5 153.5q9 71 43.5 136.5t92.5 117.5t137.5 83.5t177.5 34.5l30 172q3 14 12 23.5t23 9.5h37l-37 -206q103 -7 176 -45.5t130 -102.5 l-27 -35q-12 -17 -29 -17q-12 0 -30 16.5t-47.5 37t-75 39.5t-111.5 24l-101 -585q46 -15 92.5 -32t88.5 -37.5t76.5 -47t58.5 -62.5t34 -83t2 -108q-11 -88 -50 -166t-102 -137t-149 -94.5t-191 -40.5l-37 -216q-3 -13 -12 -22.5t-22 -9.5h-37l43 248q-130 6 -221.5 56 t-154.5 132zM299 1098q-8 -63 9 -108.5t52 -77.5t83 -55t103 -43l98 565q-78 -4 -139 -28.5t-105 -63t-69 -87.5t-32 -102zM483 67q83 5 150 33t116 73.5t79 105.5t38 129q8 68 -11.5 114.5t-58.5 79.5t-92 55t-112 41z" />
<glyph unicode="%" horiz-adv-x="1495" d="M89 0l1215 1431q7 8 16.5 13t23.5 5h69l-1216 -1431q-16 -18 -38 -18h-70zM104 1101q11 90 43 158.5t79 114t105.5 68.5t122 23t116 -23t88.5 -68.5t51.5 -114t4.5 -158.5q-11 -89 -44 -157t-80.5 -113.5t-105.5 -68.5t-120 -23q-63 0 -116 23t-88.5 68.5t-50.5 113.5 t-5 157zM183.5 1101q-9.5 -79 1.5 -135t37 -91.5t65 -52.5t85 -17t89.5 17t79.5 52.5t60.5 91.5t34.5 135t-1 135t-38 92.5t-66.5 53.5t-85.5 17t-89 -17t-78 -53.5t-60 -92.5t-34.5 -135zM795 344q11 90 43 158.5t78.5 114.5t105 69t122 23t116 -23t88.5 -69t51 -114.5 t4 -158.5q-11 -89 -44 -157t-80 -113t-105 -68t-119 -23q-63 0 -116.5 23t-89 68t-50.5 113t-4 157zM872.5 344q-9.5 -79 1.5 -134.5t37.5 -91.5t66 -52.5t85.5 -16.5t89.5 16.5t78.5 52.5t60 91.5t34.5 134.5t-1.5 136t-37 93t-65.5 53t-85.5 17t-89.5 -17t-79 -53 t-60.5 -93t-34.5 -136z" />
<glyph unicode="&#x26;" horiz-adv-x="1355" d="M60 371q9 74 43.5 141t87.5 122.5t122 99.5t146 72q-63 82 -89.5 159t-15.5 165q9 72 42.5 133t87 106t123.5 70.5t153 25.5q69 0 127.5 -23.5t99 -63.5t61.5 -92.5t16 -109.5q-15 -3 -27 -7q-24 -5 -37 -5q-8 0 -14.5 6.5t-8.5 17.5q-4 27 -17 61.5t-39 65.5t-68 52.5 t-102 21.5q-61 0 -114 -19t-93 -53.5t-65.5 -81.5t-32.5 -103q-10 -84 23.5 -161t112.5 -165l401 -451q55 74 92 154t55 155q4 13 11 20.5t19 7.5h56q-14 -96 -60.5 -198t-121.5 -195l268 -299h-91q-18 0 -29.5 4t-24.5 19l-185 205q-53 -53 -113.5 -98t-129 -77.5 t-144 -50.5t-156.5 -18q-77 0 -148.5 25.5t-124.5 75t-80.5 122t-15.5 164.5zM160 377q-10 -79 13 -137.5t66.5 -98t100 -59t113.5 -19.5q72 0 138 16.5t125 46t110.5 69t96.5 88.5l-413 461q-6 5 -10 12q-71 -29 -130.5 -69t-103.5 -88.5t-71.5 -105t-34.5 -116.5z" />
<glyph unicode="'" horiz-adv-x="364" d="M135 993l10 157l37 299h85l-37 -299l-28 -157q-4 -17 -12.5 -27t-26.5 -10q-14 0 -21 10t-7 27z" />
<glyph unicode="(" horiz-adv-x="577" d="M83 412.5q-1 112.5 13.5 232.5t43.5 233t75.5 225t114 225.5t161.5 234.5l40 -27q12 -7 10 -22q-1 -10 -9 -21q-146 -197 -234 -407.5t-116 -440.5q-28 -229 8 -439.5t135 -406.5q6 -11 4 -21q-2 -15 -17 -23l-46 -26q-64 121 -104 234t-59 225t-20 224.5z" />
<glyph unicode=")" horiz-adv-x="589" d="M36 -222q1 10 10 21q147 196 235 406.5t116 439.5q28 230 -8 440.5t-134 407.5q-6 11 -5 21q2 14 16 22l47 27q63 -121 103 -234.5t59 -225.5t20 -225t-13.5 -233t-43.5 -232.5t-75.5 -224.5t-114.5 -225.5t-161 -233.5l-39 26q-13 7 -12 23z" />
<glyph unicode="*" horiz-adv-x="761" d="M93 1091l207 112q15 8 28.5 12.5t32.5 7.5q-19 3 -31 8t-25 13l-181 113l32 46l180 -113q15 -10 23.5 -19.5t20.5 -27.5q-6 19 -7.5 34t0.5 33l27 219h53l-27 -218q-2 -18 -6.5 -33t-14.5 -34q14 17 25.5 27t29.5 19l206 112l21 -46l-206 -112q-16 -9 -30.5 -14t-31.5 -7 q18 -3 30 -7.5t27 -12.5l179 -112l-31 -47l-181 113q-14 9 -23 17.5t-20 25.5q4 -18 5.5 -31.5t-0.5 -30.5l-27 -219h-53l27 218q2 17 6 30.5t15 30.5q-13 -15 -25 -23.5t-29 -17.5l-206 -112z" />
<glyph unicode="+" horiz-adv-x="1128" d="M82 649l9 75h440l57 462h80l-57 -462h442l-10 -75h-441l-57 -464h-80l57 464h-440z" />
<glyph unicode="," horiz-adv-x="463" d="M109 -226q1 5 4.5 10t7.5 9q11 10 29.5 30t38 47.5t36.5 60t25 69.5q-6 -2 -14 -3t-17 -1q-38 0 -59 25.5t-16 65.5q4 36 32 61.5t68 25.5q44 0 64.5 -30t14.5 -79q-5 -42 -21.5 -86t-42 -85.5t-59 -80.5t-72.5 -72l-13 15q-7 8 -6 18z" />
<glyph unicode="-" horiz-adv-x="743" d="M131 566l10 83h476l-10 -83h-476z" />
<glyph unicode="." horiz-adv-x="450" d="M118 79q2 19 11.5 36.5t23.5 30.5t32 20.5t38 7.5q19 0 36 -7.5t28 -20.5t16.5 -30.5t3.5 -36.5q-3 -20 -12.5 -37t-24 -30t-32.5 -20t-38 -7q-40 0 -63.5 27t-18.5 67z" />
<glyph unicode="/" horiz-adv-x="1010" d="M40 -86l826 1538q20 38 60 38h42l-825 -1536q-11 -20 -28.5 -30t-34.5 -10h-40z" />
<glyph unicode="0" horiz-adv-x="1242" d="M100.5 395.5q-23.5 139.5 0 329.5t81 329.5t139.5 230.5t181.5 135.5t207 44.5t197 -44.5t149 -135.5t83.5 -230.5t0.5 -329.5t-81.5 -329.5t-140 -230.5t-182 -135.5t-207.5 -44.5t-196.5 44.5t-148.5 135.5t-83 230.5zM197.5 423.5q18.5 -124.5 66.5 -204t119 -115.5 t155 -36t165 36t147.5 115.5t115.5 204t71 301.5q22 176 3 301t-66 204.5t-118.5 116t-155.5 36.5t-164.5 -36.5t-147.5 -116t-116 -204.5t-71 -301q-22 -177 -3.5 -301.5z" />
<glyph unicode="1" horiz-adv-x="848" d="M45 0l4 34q3 28 37 29q9 0 84 4t146 7l71 3l144 1174q4 35 13 74l-355 -284q-11 -9 -25 -9q-17 0 -26 12l-24 41l464 370h76l-169 -1378q261 -13 281 -14q33 -2 30 -29l-4 -34h-747z" />
<glyph unicode="2" horiz-adv-x="1154" d="M45 0l4 35q1 11 8.5 23t16.5 20l556 501q69 62 129 120q59 58 104.5 117.5t75.5 122t38 133.5q10 80 -9.5 139t-59 97t-95 56t-119.5 18q-69 0 -129 -21t-109.5 -58t-85 -89t-54.5 -113q-15 -36 -45 -36q-2 0 -5 0.5t-5 0.5l-48 8q24 93 71 166t111.5 123t144.5 76 t169 26q83 0 155.5 -24t124 -72.5t76 -121.5t12.5 -172q-10 -82 -43.5 -152t-84.5 -134.5t-115 -125.5t-135 -124l-510 -463q34 8 69.5 12t71.5 4h556q8 45 14 74.5t9.5 42.5t4.5 17q8 49 50 49h39h11l-27 -218l-2 -14l-5 -43h-935z" />
<glyph unicode="3" horiz-adv-x="1123" d="M44 354l41 17q13 5 24 5t21 -5t13 -20l5 -20q4 -18 11.5 -45.5t22 -56.5t37.5 -58.5t58.5 -52.5t85.5 -37t118 -14q92 0 165 30.5t125.5 78t82.5 106.5t37 114q8 67 -6 124.5t-58 98.5t-121.5 65.5t-195.5 24.5l9 70q94 2 169 25t128 63t84 95.5t40 121.5 q9 77 -9.5 133.5t-57 93.5t-94 54t-117.5 17q-69 0 -129 -20.5t-108.5 -57t-84.5 -88.5t-58 -115q-13 -36 -42 -36q-7 0 -11 1l-49 8q25 93 71.5 166t111 123t144.5 76t169 26q83 0 154 -23t121 -69t74 -114.5t13 -158.5q-9 -71 -38 -128t-72.5 -100t-99.5 -72t-119 -44 q156 -30 226.5 -123.5t52.5 -234.5q-11 -89 -56 -165t-114 -131.5t-158 -86.5t-188 -31q-124 0 -202.5 33t-125 86.5t-68.5 119.5t-32 131z" />
<glyph unicode="4" horiz-adv-x="1186" d="M52 488l846 963h88l-118 -957h265l-6 -54q-1 -11 -9 -17.5t-22 -6.5h-238l-51 -416h-88l51 416h-683q-15 0 -22.5 6.5t-8.5 17.5zM159 494h621l93 758q2 17 5.5 37t9.5 40z" />
<glyph unicode="5" horiz-adv-x="1101" d="M42 113l34 40q12 15 31 15q13 0 36.5 -15.5t60.5 -34t89 -33.5t124 -15q84 0 160 27t136 78t99.5 126.5t50.5 170.5q10 78 -5 143.5t-56 112t-109 72.5t-164 26q-58 0 -125 -9t-143 -30l-61 20l192 642h652l-5 -42q-3 -20 -18.5 -34t-45.5 -14h-524l-146 -483 q71 17 133 24.5t118 7.5q113 0 195 -32t133 -90t70.5 -138t8.5 -174q-14 -115 -65 -205.5t-127 -154t-171.5 -97t-197.5 -33.5q-60 0 -113 10.5t-99 28.5t-83 41.5t-65 48.5z" />
<glyph unicode="6" horiz-adv-x="1079" d="M70 461q10 85 66.5 192t170.5 240l461 532q20 24 55 24h86l-501 -564q-37 -42 -68.5 -79t-57.5 -73q68 62 155.5 97.5t185.5 35.5q93 0 168.5 -30.5t125.5 -86.5t72.5 -135t10.5 -177.5t-57.5 -181.5t-116 -143.5t-163 -94t-197.5 -33.5q-101 0 -181 32.5t-132.5 94 t-74.5 150t-8 200.5zM162 437q-10 -81 7 -149.5t56.5 -118t103 -77t146.5 -27.5q88 0 162 27.5t129.5 76t90.5 115.5t45 146q10 83 -8 150t-60 113.5t-104.5 72t-142.5 25.5q-90 0 -165 -31.5t-130 -81t-88.5 -113t-41.5 -128.5z" />
<glyph unicode="7" horiz-adv-x="1140" d="M90 1174l26 212l8 63h105h858l-5 -44q-2 -17 -7 -30t-12 -22l-826 -1316q-10 -16 -25 -26.5t-38 -10.5h-66l829 1311q17 27 38 48h-761q-20 -117 -24 -136q-9 -50 -50 -49h-50z" />
<glyph unicode="8" horiz-adv-x="1128" d="M62 383q10 80 40.5 142.5t78 108.5t109.5 76.5t133 46.5q-61 18 -106.5 50t-73 76t-38.5 97.5t-3 115.5q9 77 46.5 144.5t98 117.5t141 78.5t178.5 28.5q96 0 170 -28.5t122.5 -78.5t69.5 -118t11 -144q-8 -61 -31.5 -115t-63 -98t-92.5 -76t-119 -50q68 -15 122 -46 t90.5 -77t52.5 -108.5t6 -142.5q-11 -92 -55 -166t-112.5 -126t-158.5 -79.5t-194.5 -27.5t-187.5 27.5t-138.5 79.5t-81 126t-14.5 166zM162 384q-9 -73 10.5 -132t63 -101.5t109 -66t148.5 -23.5t154 23.5t125.5 66t88.5 101.5t43 132q12 95 -15.5 158.5t-77 101.5 t-113 54t-125 16t-129 -16t-126.5 -54t-101.5 -101.5t-54.5 -158.5zM297 1095q-7 -58 5 -112.5t46.5 -97t92.5 -67.5t142 -25q83 0 147 25t109 67.5t71 96.5t33 113q8 62 -7 116t-51.5 94t-94 62.5t-134 22.5t-140 -23t-109.5 -62.5t-74.5 -93.5t-35.5 -116z" />
<glyph unicode="9" horiz-adv-x="1058" d="M91 1030q11 93 55.5 172.5t113 138t157 91.5t188.5 33q96 0 172.5 -32.5t127 -92.5t72.5 -143.5t10 -185.5q-7 -56 -25 -107.5t-47.5 -102.5t-69 -105t-88.5 -115l-448 -557q-18 -24 -54 -24h-88l502 598q36 43 66.5 81.5t56.5 74.5q-67 -66 -156 -102t-185 -36 q-89 0 -161 29.5t-120 83.5t-69 130.5t-10 170.5zM189 1036q-10 -80 7 -144t56 -108.5t99 -68t137 -23.5q87 0 158.5 30t124.5 78t84.5 108t39.5 121q10 79 -8 144.5t-58 112t-100 72.5t-135 26q-80 0 -150 -25.5t-123 -71.5t-87.5 -110t-44.5 -141z" />
<glyph unicode=":" horiz-adv-x="482" d="M93 79q2 19 11.5 36.5t24 30.5t32 20.5t38.5 7.5q19 0 35.5 -7.5t28 -20.5t17 -30.5t2.5 -36.5q-3 -20 -12.5 -37t-23.5 -30t-32.5 -20t-37.5 -7q-40 0 -64 27t-19 67zM193 895q2 19 11.5 36.5t24 30.5t32.5 20.5t38 7.5q19 0 35.5 -7.5t28 -20.5t17 -30.5t3.5 -36.5 q-3 -20 -12.5 -37t-24 -30t-33 -20t-37.5 -7q-40 0 -64 27t-19 67z" />
<glyph unicode=";" horiz-adv-x="497" d="M82 -226q1 5 4.5 10t8.5 9q11 10 29.5 30t37.5 47.5t36 60t26 69.5q-6 -2 -14 -3t-18 -1q-38 0 -59 25.5t-16 65.5q4 36 32 61.5t68 25.5q44 0 64.5 -30t14.5 -79q-5 -42 -21 -86t-42 -85.5t-59.5 -80.5t-71.5 -72l-14 15q-7 8 -6 18zM212 895q2 19 11.5 36.5t23.5 30.5 t32 20.5t38 7.5q19 0 36 -7.5t28 -20.5t16.5 -30.5t3.5 -36.5q-3 -20 -12.5 -37t-24 -30t-32.5 -20t-38 -7q-40 0 -63.5 27t-18.5 67z" />
<glyph unicode="&#x3c;" horiz-adv-x="987" d="M86 667l5 42l817 394l-9 -67q-1 -11 -8 -19t-24 -17l-601 -286q-36 -17 -77 -27q42 -9 70 -25l531 -288q14 -8 19.5 -16.5t4.5 -19.5l-9 -67z" />
<glyph unicode="=" horiz-adv-x="1131" d="M123 494l9 75h847l-9 -75h-847zM162 814l10 76h846l-9 -76h-847z" />
<glyph unicode="&#x3e;" horiz-adv-x="967" d="M69 271l8 67q1 11 8.5 20t22.5 16l602 288q34 16 76 25q-20 5 -36.5 12t-32.5 15l-532 286q-25 14 -22 36l8 67l719 -394l-5 -42z" />
<glyph unicode="?" horiz-adv-x="802" d="M72 1323q31 28 69 53.5t81.5 45.5t94.5 31.5t108 11.5q72 0 132.5 -21.5t103.5 -61.5t64 -97.5t12 -129.5q-10 -78 -40.5 -134t-73 -98.5t-89 -75t-87.5 -60.5t-70.5 -57t-36.5 -63l-33 -168h-66l16 175l1 5q5 42 33.5 73.5t68.5 61.5t86 60.5t87.5 69t72 88.5t38.5 119 q7 55 -9 98.5t-49 74t-79.5 46.5t-98.5 15q-68 0 -119.5 -17.5t-88 -39.5t-58.5 -40t-29 -18q-15 0 -21 12zM126 79q2 19 11.5 36.5t24 30.5t32 20.5t38.5 7.5q19 0 35.5 -7.5t28 -20.5t17 -30.5t2.5 -36.5q-3 -20 -12.5 -37t-24 -30t-32.5 -20t-38 -7q-40 0 -63.5 27 t-18.5 67z" />
<glyph unicode="@" horiz-adv-x="1650" d="M83 562q21 171 99.5 317.5t196 254t264.5 168.5t305 61q137 0 258 -42.5t207.5 -127t129 -209.5t22.5 -290q-14 -112 -55 -204t-101 -158t-134 -102.5t-153 -36.5q-90 0 -130 47.5t-31 136.5q-69 -95 -146 -137.5t-161 -42.5q-57 0 -97 20t-63.5 54.5t-31.5 81.5t-1 102 q11 87 55 174.5t116.5 157.5t171 114t217.5 44q54 0 100.5 -9t82.5 -27l-137 -355q-18 -47 -28.5 -84.5t-13.5 -67.5q-5 -45 2.5 -73t24.5 -44.5t41 -22t50 -5.5q58 0 115.5 30.5t105.5 87.5t82 138t46 181q19 152 -17 265t-112.5 188t-185.5 111.5t-237 36.5 q-140 0 -272 -54t-239 -151.5t-179.5 -232t-91.5 -295.5q-22 -181 18.5 -319t128.5 -230.5t215 -140t276 -47.5q152 0 281.5 35t240.5 101q8 5 18 5q14 0 19 -14l10 -38q-124 -76 -266.5 -117t-310.5 -41q-169 0 -309 54t-236 157t-140 253t-20 342zM541 457q-5 -41 1 -76.5 t23.5 -61t45.5 -40.5t69 -15q37 0 78 12.5t81.5 44.5t79 87t70.5 140l120 317q-24 7 -49.5 11t-59.5 4q-92 0 -172 -37.5t-140.5 -98t-98.5 -135.5t-48 -152z" />
<glyph unicode="A" d="M37 0l6 47q4 37 44 41l67 7l721 1354h104l388 -1354l65 -7q35 -4 35 -34v-7l-6 -47h-67h-42h-39h-13h-192l5 47q5 39 52 42q4 0 13 1t29.5 2t52.5 3l-101 354l-7 26h-690l-14 -26l-187 -354q31 -2 51.5 -3t29 -2t12.5 -1q42 -2 42 -35v-7l-6 -47h-192h-14h-39h-41h-67z M503 553h628l-199 706q-5 17 -9 39q-5 23 -9 47q-10 -24 -20 -47q-9 -22 -19 -41z" />
<glyph unicode="B" horiz-adv-x="1309" d="M35 0l5 41q4 34 45 36q4 0 19 0.5t46 1.5t67 2l158 1287q-36 2 -66.5 2.5t-45.5 1t-19 0.5q-40 2 -36 36l5 41h172h417q124 0 211.5 -24.5t141 -72t74.5 -116.5q14 -45 14 -98q0 -28 -4 -58q-7 -57 -33.5 -110t-70 -98.5t-102.5 -78.5t-131 -51q166 -25 248 -113 q67 -72 67 -182q0 -24 -3 -51q-11 -92 -53 -165.5t-110.5 -125t-163 -78.5t-210.5 -27h-470h-172zM322 84h364q191 0 298.5 82.5t125.5 231.5q2 20 2 40q0 46 -13 84q-19 55 -63.5 93t-113.5 58.5t-160 20.5h-365zM406 771h315q100 0 174.5 25.5t125 67.5t78.5 95.5 t35 109.5q3 26 3 50q-1 109 -69 171q-84 76 -276 76h-313z" />
<glyph unicode="C" horiz-adv-x="1341" d="M76 725q20 165 89 301t174.5 234t242.5 151.5t295 53.5q203 0 450 -104l-40 -326h-50q-38 0 -38 41v8q2 24 16 222q-149 69 -343 69h-6q-132 0 -248.5 -45.5t-206.5 -130t-149.5 -205t-77.5 -269.5q-7 -60 -8 -116q0 -87 18 -159q30 -120 97.5 -203.5t168 -128 t224.5 -44.5q78 0 140 10t115.5 30.5t101.5 50.5t96 69l11 7q4 3 10 3q11 0 17 -7l35 -44q-51 -48 -109 -86.5t-124 -66t-143.5 -42t-167.5 -14.5q-151 0 -269.5 52.5t-196.5 149.5t-111 234q-21 85 -21 183q0 59 8 122z" />
<glyph unicode="D" horiz-adv-x="1562" d="M34 0l5 41q4 34 45 36q5 0 19.5 0.5t45.5 1.5t67 2l158 1287q-36 1 -66.5 2t-45.5 1.5t-19 0.5q-40 2 -36 36l5 41h172h503q155 0 275.5 -50t200.5 -145q79 -94 113 -228q21 -82 21 -177q0 -59 -8 -124q-21 -168 -87 -302t-169 -228.5t-236 -144.5t-288 -50h-503h-172z M322 85h398q131 0 243.5 43t199 125t143 200.5t75.5 271.5q8 62 8 119q-1 82 -17 152q-28 118 -94 200t-168 125t-233 43h-398z" />
<glyph unicode="E" horiz-adv-x="1273" d="M34 0l5 41q4 34 45 36q5 0 19.5 0.5t45.5 1.5t67 2l158 1287q-36 1 -66.5 2t-45.5 1.5t-19 0.5q-40 2 -36 36l5 41h172h869l-11 -87l-26 -213h-50q-38 0 -38 42v8q2 28 12 163h-661l-72 -586h577l-11 -85h-576l-75 -604h661q5 26 12.5 71.5t11 66t4.5 25.5q9 50 51 50h49 l-26 -213l-10 -87h-869h-172z" />
<glyph unicode="F" horiz-adv-x="1288" d="M34 0l5 41q4 34 45 36q5 0 19.5 0.5t45.5 1.5t67 2l158 1287q-36 1 -66.5 2t-45.5 1.5t-19 0.5q-40 2 -36 36l5 41h172h817h52h13l-37 -300h-50q-38 0 -38 42v8q1 15 12 163h-674l-75 -609h541l-10 -87h-541l-72 -585q36 -1 66.5 -2t45.5 -1.5t19 -0.5q40 -2 36 -36 l-5 -41h-172h-106h-172z" />
<glyph unicode="G" horiz-adv-x="1426" d="M76 725q21 168 89 304.5t174 233.5t247 149.5t308 52.5q109 0 258 -30t240 -74l-41 -326h-49q-38 0 -38 41v8q2 21 16 220q-142 71 -400 71q-141 0 -260.5 -45t-210 -129t-149 -204.5t-76.5 -271.5q-8 -61 -8 -117q0 -85 18 -158q29 -122 98 -206.5t174.5 -129.5 t239.5 -45q75 0 137.5 7.5t117 23t105 37.5t101.5 49l48 391h-278q-11 0 -18 7t-6 16l7 57h400l-63 -515q-59 -38 -121 -67.5t-131 -49.5t-147 -30.5t-169 -10.5q-157 0 -280 52.5t-204 149.5t-115 234q-21 85 -21 183q0 59 7 122z" />
<glyph unicode="H" horiz-adv-x="1693" d="M34 0l5 41q4 34 45 36q5 0 19.5 0.5t45.5 1.5t67 2l158 1287q-36 1 -66.5 2t-45.5 1.5t-19 0.5q-40 2 -36 36l5 41h172h105h173l-5 -41q-4 -34 -45 -36q-4 0 -19.5 -0.5t-46 -1.5t-66.5 -2l-73 -595h907l73 595q-36 1 -66.5 2t-45.5 1.5t-19 0.5q-40 2 -37 36l5 41h173 h105h173l-5 -41q-4 -34 -45 -36q-5 0 -20 -0.5t-45.5 -1.5t-67.5 -2l-158 -1287q36 -1 66.5 -2t45.5 -1t20 -1q40 -2 36 -36l-5 -41h-173h-105h-172l5 41q4 34 45 36q5 0 19.5 0.5t45 1.5t67.5 2l75 613h-907l-75 -613q36 -1 66.5 -2t45 -1t19.5 -1q40 -2 36 -36l-5 -41 h-172h-106h-172z" />
<glyph unicode="I" horiz-adv-x="680" d="M34 0l5 41q4 34 45 36q5 0 19.5 0.5t45.5 1.5t67 2l158 1287q-36 1 -66.5 2t-45.5 1.5t-19 0.5q-40 2 -36 36l5 42h172h106h172l-5 -42q-4 -34 -45 -36q-4 0 -19 -0.5t-46 -1.5t-67 -2l-158 -1287q36 -1 66.5 -2t45.5 -1.5t19 -0.5q40 -2 36 -36l-5 -41h-172h-106h-172z " />
<glyph unicode="J" horiz-adv-x="1030" d="M39 13q4 15 7 29q3 15 6 29q3 9 9.5 16t21.5 7q9 0 21.5 -3.5t29.5 -7.5q18 -4 40 -7.5t53 -3.5q78 0 143.5 24.5t116 75t83 128t45.5 181.5l108 887q-37 2 -70.5 2.5t-52.5 1t-23 0.5q-40 2 -36 36l5 41h187h106h172l-5 -41q-4 -34 -45 -36q-4 0 -19 -0.5t-45.5 -1.5 t-67.5 -2l-109 -885q-15 -122 -56.5 -215t-105 -156.5t-148 -95.5t-184.5 -32q-46 0 -92.5 7t-94.5 22z" />
<glyph unicode="K" horiz-adv-x="1471" d="M34 0l5 41q4 34 45 36q4 0 19 0.5t46 1.5t67 2l158 1289q-36 1 -66.5 2t-45 1.5t-19.5 0.5q-40 2 -36 36l5 41h172h105h172l-5 -41q-4 -34 -45 -36q-4 0 -19 -1q-15 0 -46 -1q-30 -1 -67 -2l-72 -590h86q19 0 33.5 1.5t27 6.5t23.5 12t24 18l604 552q-29 1 -65 1.5 t-57 0.5h-25q-40 2 -36 36l5 41h263h19h143l-5 -41q-4 -34 -45 -36q-4 0 -12 -0.5t-26.5 -1t-38.5 -1.5l-625 -570q-22 -20 -38.5 -31.5t-35.5 -18.5q21 -6 36 -19t30 -34l516 -616q21 -1 39 -1.5t26.5 -1t12.5 -0.5q40 -2 36 -36l-5 -41h-43h-85h-25h-9h-272l5 41 q4 34 45 36h26q22 0 60 1q38 0 68 1l-492 575q-10 11 -18 20q-8 8 -19.5 13.5t-27.5 8t-40 2.5h-93l-76 -617q36 -1 66.5 -2t45 -1.5t19.5 -0.5q40 -2 36 -36l-5 -41h-172h-105h-172z" />
<glyph unicode="L" horiz-adv-x="1139" d="M34 0l5 41q4 34 45 36q5 0 19.5 0.5t45.5 1.5t67 2l158 1287q-36 1 -66.5 2t-45.5 1.5t-19 0.5q-40 2 -36 36l5 41h172h104h173l-5 -41q-4 -34 -45 -36q-5 0 -20 -0.5t-45.5 -1.5t-66.5 -2l-157 -1279h599q8 44 14 73t9.5 41.5t3.5 17.5q9 49 51 49h9h40l-18 -149 l-10 -83l-5 -38h-17h-18h-774h-172z" />
<glyph unicode="M" horiz-adv-x="2007" d="M34 0l5 41q4 34 45 36q5 0 19.5 0.5t45.5 1.5t67 2l158 1287q-36 1 -66.5 2t-45.5 1.5t-19 0.5q-40 2 -36 36l5 42h172h72q14 0 22.5 -3.5t14.5 -17.5l461 -1007q12 -29 19 -62q8 17 17 33t19 30l693 1006q10 13 18.5 16.5t22.5 4.5h73h172l-5 -42q-4 -34 -45 -36 q-5 0 -19 -1q-15 0 -45.5 -1t-67.5 -2l-158 -1287q36 -1 66.5 -2t45.5 -1t19 -1q40 -2 36 -36l-5 -41h-172h-92h-177l5 41q4 34 45 36q4 0 20.5 0.5t48 1.5t68.5 2l141 1154q3 27 10 56l-694 -1012q-18 -27 -45 -27h-16q-26 0 -38 27l-461 1013q-1 -30 -4 -57l-142 -1154 q36 -1 68 -2l48 -1q16 0 20 -1q40 -2 37 -36l-5 -41h-178h-91h-172z" />
<glyph unicode="N" horiz-adv-x="1693" d="M34 0l5 41q4 34 45 36q5 0 19.5 0.5t45.5 1.5t67 2l158 1287q-36 1 -66.5 2t-45.5 1.5t-19 0.5q-40 2 -36 36l5 42h172h51q14 0 22 -4t16 -17l784 -1255q1 31 4 59l139 1135q-36 1 -67.5 2t-47.5 1.5t-21 0.5q-40 2 -36 36l5 42h177h92h173l-5 -42q-4 -34 -45 -36 q-4 0 -19.5 -0.5t-46 -1.5t-67.5 -2l-168 -1368h-50q-24 0 -35 21l-788 1257q-1 -31 -4 -58l-140 -1139q36 -1 68 -2l48 -1q16 0 20 -1q40 -2 36 -36l-5 -41h-177h-91h-172z" />
<glyph unicode="O" horiz-adv-x="1530" d="M76 725q20 167 88 303.5t171 233.5t236.5 150t285.5 53q155 0 275.5 -52.5t199.5 -150.5q78 -98 112 -234q21 -85 22 -182q0 -58 -8 -121q-21 -168 -88 -304.5t-170 -233.5t-236.5 -149.5t-287.5 -52.5q-153 0 -273.5 52.5t-199.5 149.5t-113 233q-21 86 -21 185 q0 58 7 120zM184 725q-8 -62 -7 -118q0 -83 16 -155q28 -120 95 -204t168.5 -128t230.5 -44q131 0 244 44t199.5 128t143 204t75.5 273q8 63 8 120q0 83 -16 153q-27 120 -93 204t-168.5 128.5t-233.5 44.5q-129 0 -241.5 -44.5t-200 -128.5t-144.5 -204.5t-76 -272.5z" />
<glyph unicode="P" horiz-adv-x="1238" d="M34 0l5 41q4 34 45 36q5 0 19.5 0.5t45.5 1.5t67 2l158 1287q-36 1 -66.5 2t-45.5 1.5t-19 0.5q-40 2 -36 36l5 41h172h353q255 1 371 -111q95 -92 95 -248q0 -34 -5 -71q-12 -95 -57 -175t-118.5 -138t-173 -90t-218.5 -32h-249l-61 -503q36 -1 66.5 -2t45.5 -1.5 t19 -0.5q40 -2 36 -36l-5 -41h-172h-105h-172zM393 668h248q96 0 175 26.5t137.5 73.5t94.5 111t46 140q4 30 4 57q0 126 -76 200q-92 90 -295 90h-249z" />
<glyph unicode="Q" horiz-adv-x="1529" d="M75 725q20 167 88 303.5t171 233.5t236.5 150t285.5 53q155 0 275.5 -52.5t199.5 -150t113 -234.5q20 -85 20 -182q0 -59 -7 -121q-13 -110 -47 -206.5t-85 -178t-118 -146t-146 -110.5l327 -403h-88q-20 0 -36 5.5t-27 19.5l-268 334q-68 -27 -141 -41t-153 -14 q-153 0 -273.5 52.5t-199.5 149.5t-113 233q-21 86 -21 185q0 58 7 120zM183 725q-8 -62 -8 -118q0 -84 17 -155q28 -120 95 -204t168.5 -128t230.5 -44q131 0 244 44t199.5 128t143 204t75.5 273q8 63 8 120q0 82 -16 153q-27 120 -93 204t-168.5 128.5t-233.5 44.5 q-129 0 -241.5 -44.5t-200 -128.5t-144.5 -204.5t-76 -272.5z" />
<glyph unicode="R" horiz-adv-x="1319" d="M34 0l5 41q4 34 45 36q5 0 19.5 0.5t45.5 1.5t67 2l158 1287q-36 1 -66.5 2t-45.5 1.5t-19 0.5q-40 2 -36 36l5 41h172h352q251 0 363 -97q93 -80 93 -223q0 -29 -4 -61q-10 -83 -47 -151.5t-97.5 -120.5t-140 -85t-176.5 -43q23 -15 39 -41l369 -548q19 -1 36.5 -1 t26.5 -0.5t13 -0.5q36 -2 36 -30v-6l-5 -41h-54h-81h-10q-16 0 -27.5 6t-20.5 21l-392 587q-15 23 -33.5 32t-60.5 9h-172l-70 -574q36 -1 66.5 -2t45 -1.5t19.5 -0.5q40 -2 36 -36l-5 -41h-172h-105h-172zM401 733h234q96 0 175 23t137 66t93.5 103.5t44.5 136.5q3 26 3 50 q0 118 -76 180q-92 74 -286 74h-248z" />
<glyph unicode="S" horiz-adv-x="1061" d="M44 63l3 28l4 25l33 272h50q38 0 38 -42v-8t-3 -37q-2 -29 -6 -83q-4 -50 -7 -91q111 -56 282 -56q86 0 157 26t123 71t84 107t41 133q2 20 2 39q0 51 -18 87q-25 50 -72 83t-110 56t-128 44q-66 22 -128 48.5t-108 68.5q-45 40 -69 102q-16 42 -17 99q0 27 4 57 q9 73 45 140t95.5 119t142 83t182.5 31q180 0 364 -84l-36 -297h-50q-38 0 -38 42v8q1 16 14 192q-117 52 -264 52q-79 0 -142 -22.5t-108 -61.5t-72.5 -90t-34.5 -107q-2 -19 -3 -37q0 -50 20 -85q26 -48 72.5 -82t108.5 -57t128 -45q66 -23 128 -50t108 -68t70 -101 q16 -41 16 -96q0 -25 -3 -53q-11 -91 -52 -171.5t-108 -140t-157 -93.5t-201 -34q-202 0 -380 79z" />
<glyph unicode="T" horiz-adv-x="1269" d="M56 1148l37 301h14h30h1067h28h15l-37 -301h-49q-38 0 -38 42v8q0 5 11 162h-421l-157 -1279q36 -1 66.5 -2t45.5 -1.5t19 -0.5q40 -2 36 -36l-5 -41h-172h-105h-172l5 41q4 34 45 36q5 0 19.5 0.5t45 1.5t67.5 2l157 1279h-424q-24 -141 -28 -162q-9 -50 -50 -50h-50z " />
<glyph unicode="U" d="M79 1408l5 41h173h105h199l-5 -41q-4 -34 -46 -36q-4 0 -25.5 -0.5t-58.5 -1.5l-74 -2l-100 -814q-5 -38 -5 -75q1 -59 13 -113q20 -88 68.5 -153t126 -101.5t182 -36.5t191.5 36t152.5 100.5t106.5 152.5t53 189l100 815q-37 1 -73.5 2t-58 1.5t-25.5 0.5q-40 2 -36 36 l5 41h198h104h173l-5 -41q-4 -34 -45 -36q-5 0 -20 -0.5t-45.5 -1.5t-67.5 -2l-100 -815q-15 -120 -65.5 -224t-131 -181t-187.5 -121t-234 -44t-223.5 44t-158.5 121t-87 181q-16 65 -16 136q0 43 6 88l100 815q-36 2 -66.5 2.5t-45.5 1t-20 0.5q-36 2 -36 30v6z" />
<glyph unicode="V" horiz-adv-x="1547" d="M61 1408l5 41h86h83h219l-5 -41q-4 -34 -45 -36q-5 0 -17 -0.5t-39.5 -1.5t-62.5 -2l331 -1149q14 -47 19 -100q18 55 42 100l612 1149q-35 1 -62.5 2t-39.5 1.5t-17 0.5q-40 2 -36 36l5 41h216h5h81h87l-5 -41q-4 -34 -45 -36q-3 0 -13.5 -1t-27.5 -1.5t-39 -1.5 l-732 -1368h-94l-396 1368q-22 1 -38.5 2t-27 1.5t-13.5 0.5q-36 2 -36 30v6z" />
<glyph unicode="W" horiz-adv-x="2242" d="M61 1408l5 42h86h86h216l-5 -42q-4 -34 -45 -36q-5 0 -17 -0.5t-40 -1.5t-63 -2l209 -1138q4 -21 5 -44q2 -27 4 -49q9 27 16 49q8 23 18 44l556 1191q5 11 16.5 19.5t25.5 9.5h29q14 0 22.5 -8t11.5 -21l264 -1191q5 -21 7.5 -43t4.5 -48q8 24 15 47.5t16 43.5l488 1138 q-36 1 -65 2t-42.5 1.5t-17.5 0.5q-40 2 -36 36l5 42h216h6h80h86l-5 -42q-4 -34 -45 -36q-4 0 -13 -0.5t-24 -1.5t-35 -2l-598 -1368h-94l-274 1257q-5 24 -8 53q-9 -28 -20 -53l-584 -1257h-93l-263 1368q-19 1 -34 2t-24.5 1.5t-12.5 0.5q-36 2 -36 30v6z" />
<glyph unicode="X" horiz-adv-x="1537" d="M37 0l5 41q4 34 45 36q3 0 14 1t28.5 1.5t41.5 1.5l547 662l-366 625q-23 1 -40.5 1.5t-28 1.5t-13.5 1q-40 2 -36 36l5 41h66h29h74h3h226l-5 -41q-4 -34 -46 -36q-5 0 -15 -0.5t-37 -1.5t-61 -2l328 -574q4 9 8 15q5 8 11 16l449 543q-37 1 -65.5 2t-42 1.5t-18.5 0.5 q-40 2 -36 36l5 41h233h7h62h39h65l-5 -41q-4 -34 -45 -36q-3 0 -14 -1t-28.5 -1.5t-41.5 -1.5l-518 -619l383 -668q21 -1 36.5 -2t25.5 -1t13 -1q40 -2 36 -36l-5 -41h-60h-31h-72h-10h-220l5 41q4 34 45 36q5 0 15 1q11 0 38 1q28 1 63 2l-344 612q-6 -15 -18 -29 l-481 -583h1q36 -1 65 -2t42.5 -1t17.5 -1q40 -2 37 -36l-5 -41h-234h-10h-59h-37h-66z" />
<glyph unicode="Y" horiz-adv-x="1392" d="M61 1408l5 41h65h11h80h16h206l-5 -41q-4 -34 -45 -36q-5 0 -16 -0.5t-36 -1.5t-55 -2l305 -610q12 -24 19 -46t13 -44q11 23 24 44.5t30 45.5l454 610q-31 1 -55.5 2t-35.5 1.5t-15 0.5q-40 2 -36 36l5 41h205h15h82h11h65l-5 -41q-4 -34 -45 -36q-52 -3 -76 -4 l-579 -770l-64 -517q36 -1 66.5 -2t45.5 -1.5t19 -0.5q40 -2 36 -36l-5 -41h-172h-105h-173l5 41q4 34 45 36q5 0 20 0.5t45.5 1.5t67.5 2l63 517l-390 770q-22 1 -75 4q-36 2 -36 30v6z" />
<glyph unicode="Z" horiz-adv-x="1307" d="M37 0l5 38q2 19 16 37l1080 1287h-800q-8 -45 -16 -84.5t-13 -62.5t-6 -27q-9 -49 -48 -49h-2h-50l38 310h1047l-5 -36q-3 -22 -19 -42l-1077 -1284h818q8 45 16 84.5t13 62.5t6 27q9 49 48 49h2h50l-38 -310h-1065z" />
<glyph unicode="[" horiz-adv-x="631" d="M51 -270l224 1823h326l-5 -36q-2 -13 -11.5 -21.5t-23.5 -8.5h-211l-208 -1691h211q14 0 22 -8t6 -21l-4 -37h-326z" />
<glyph unicode="\" horiz-adv-x="669" d="M75 1490h42q40 0 50 -38l448 -1538h-39q-17 0 -32.5 9.5t-21.5 30.5z" />
<glyph unicode="]" horiz-adv-x="648" d="M37 -270l4 37q2 13 11 21t24 8h211l207 1691h-211q-14 0 -21 8t-6 22l5 36h324l-224 -1823h-324z" />
<glyph unicode="^" horiz-adv-x="907" d="M78 819l426 630h62l272 -630h-70q-11 0 -19 7t-12 17l-192 446q-7 17 -12.5 32.5t-8.5 32.5q-7 -16 -15.5 -32t-19.5 -33l-301 -446q-6 -8 -15 -16t-22 -8h-73z" />
<glyph unicode="_" horiz-adv-x="1154" d="M161 -280l8 70h807l-8 -70h-807z" />
<glyph unicode="`" horiz-adv-x="514" d="M128 1465h94q25 0 36.5 -7t20.5 -25l130 -244h-55q-12 0 -20.5 3.5t-15.5 13.5z" />
<glyph unicode="a" horiz-adv-x="1028" d="M52 342q0 89 22.5 174.5t64 162.5t99 141.5t126.5 111.5t148 73.5t163 26.5q62 0 115 -10.5t105 -37.5l-110 -904q24 -1 46 -2q24 -1 33 -1h15q36 -2 36 -30v-6l-5 -41h-135h-24h-23q-19 0 -27 9.5t-8 22.5l34 320q-39 -82 -85.5 -149t-99.5 -115t-111 -74.5t-121 -26.5 q-64 0 -112.5 25t-80.5 71t-48.5 111.5t-16.5 147.5zM150 358q0 -137 46.5 -213.5t145.5 -76.5q58 0 115 32.5t108 92.5t97 144.5t81 187.5l52 414q-60 20 -131 21q-69 0 -133.5 -23t-121.5 -64t-104.5 -97.5t-82.5 -123.5t-53.5 -142t-18.5 -152z" />
<glyph unicode="b" horiz-adv-x="1070" d="M79 44l6 52l161 1313q-28 1 -49.5 2t-30.5 1t-15.5 0.5t-10.5 0.5q-40 2 -37 36l5 41h148h98l-79 -649q79 90 174.5 142t206.5 52q188 1 277 -129q65 -95 66 -262q0 -60 -9 -128q-14 -112 -55 -208.5t-106.5 -167.5t-153.5 -112t-195 -41q-138 0 -401 57zM184 107 q203 -43 283 -43h4q90 0 161.5 32.5t124.5 92.5t86.5 143.5t45.5 183.5q8 64 8 119q0 138 -51 215q-71 107 -228 107q-102 0 -190 -52t-164 -145z" />
<glyph unicode="c" horiz-adv-x="917" d="M61 510q14 117 56.5 213t110 165.5t157.5 108t201 38.5q36 0 105 -16t121 -32l52 -16l-32 -256h-50q-38 0 -38 41v8t1 25t2 57.5t4 77.5q-90 34 -165 34h-4q-88 0 -160 -31t-126 -89.5t-88.5 -141.5t-47.5 -186q-6 -50 -6 -95q0 -51 8 -95q15 -82 54 -139.5t101 -87 t142 -29.5q74 0 125.5 17t86 37.5t56 38t32.5 17.5q13 0 19 -10l23 -33q-27 -31 -66.5 -57.5t-87 -46t-101.5 -30t-111 -10.5q-97 0 -173.5 35t-125.5 102q-50 66 -70 164q-11 56 -11 121q0 48 6 101z" />
<glyph unicode="d" horiz-adv-x="1092" d="M61 507q14 112 55 208.5t106.5 167.5t153 112t195.5 41q104 0 175 -38t117 -112l64 523q-28 1 -50 2t-30.5 1t-15 0.5t-11.5 0.5q-40 2 -36 36l5 41h148h97l-173 -1409q24 -1 44 -2t28 -1t14 -0.5t10 -0.5q41 -2 37 -36l-2 -10l-4 -31h-137h-53q-25 0 -26 27l9 160 q-79 -92 -176.5 -146t-209.5 -54q-188 0 -277 130q-65 96 -65 262q0 59 8 128zM161 507q-8 -64 -7 -119q0 -138 50 -215q71 -107 228 -107q102 0 190 52t164 145l66 538q-49 87 -115.5 123t-157 36t-162 -33t-124.5 -93t-86.5 -143.5t-45.5 -183.5z" />
<glyph unicode="e" horiz-adv-x="897" d="M53 387q0 77 15.5 155t45.5 149.5t75 134t102 108.5t126.5 72.5t150.5 26.5q75 0 127 -21t84 -52t46.5 -67.5t14.5 -68.5q0 -42 -11.5 -79.5t-40 -71.5t-78 -64t-126 -55.5t-183 -45.5t-249.5 -35q-2 -22 -3.5 -43t-1.5 -41q0 -153 69 -239q70 -86 209 -86q54 0 97.5 12 t78 30.5t60.5 38.5q26 21 46.5 39.5t35.5 30t27 11.5t22 -10l22 -27q-50 -53 -97.5 -91.5t-96.5 -63t-101 -36t-111 -11.5q-85 0 -151.5 28t-111.5 79.5t-68.5 126t-23.5 166.5zM163 541q130 14 224 33t159.5 40t106 45.5t63 50.5t30.5 54t8 57q0 21 -10 46.5t-32.5 46 t-59 34.5t-89.5 14q-82 0 -148 -35t-116.5 -93t-85 -134t-50.5 -159z" />
<glyph unicode="f" horiz-adv-x="971" d="M8 -331q0 33 37 33q52 1 101.5 17t89 51.5t68 93t38.5 141.5l111 907l-142 10q-29 2 -27 25l5 40h173l16 129q11 87 41.5 153t77 110t107 66t129.5 22q32 0 63.5 -5.5t55.5 -15.5l-9 -47q-3 -14 -21 -15q-12 0 -33 3.5t-52 3.5q-50 0 -94 -15t-79 -48t-58.5 -85.5 t-32.5 -129.5l-16 -126h331l-9 -73h-328l-112 -912q-12 -100 -47 -172t-90 -119t-129.5 -69t-164.5 -22v49z" />
<glyph unicode="g" horiz-adv-x="1043" d="M13 -135q0 74 38.5 130.5t104.5 95.5t153.5 59.5t188.5 20.5q35 0 69.5 -2.5t70.5 -7.5q-17 24 -29 50.5t-12 59.5q0 36 12.5 73t46.5 89q-42 -29 -88.5 -44t-101.5 -15q-58 0 -108.5 18.5t-87 54.5t-56.5 89t-20 122q0 71 25 139t72.5 121.5t117 85.5t158.5 32 q52 0 98.5 -12.5t82.5 -38.5h266l-4 -33q-1 -10 -8 -17.5t-21 -9.5l-166 -14q18 -32 28.5 -70.5t10.5 -84.5q-1 -56 -15 -102.5t-34.5 -85t-44.5 -71.5t-44.5 -65t-33.5 -64.5t-13 -69.5q0 -31 12 -57t30 -50.5t39.5 -49.5t39.5 -53t30 -60.5t12 -72.5q0 -64 -32.5 -124 t-92 -106.5t-143 -74t-185.5 -27.5q-81 0 -148 16.5t-115.5 47.5t-75.5 76t-27 102zM105 -124q0 -44 20 -78.5t57 -57.5t89.5 -35t115.5 -12q80 0 145.5 21.5t112 57.5t72 82t26.5 95q0 50 -16 86t-40 65l1 -3q-50 8 -95 11.5t-87 3.5q-101 0 -176 -19t-124.5 -51.5 t-75 -75.5t-25.5 -90zM283 658q0 -109 55 -165t150 -56q66 0 117.5 28t87.5 72.5t54.5 101t18.5 114.5q0 106 -56.5 160t-151.5 54q-66 0 -117 -26.5t-86.5 -69.5t-53.5 -98.5t-18 -114.5z" />
<glyph unicode="h" horiz-adv-x="1125" d="M77 0l10 81l163 1328q-24 1 -50 2q-22 1 -31 1q-5 0 -15 1h-11q-40 2 -36 36l5 41h148h97l-79 -645q81 87 178 138.5t210 51.5q84 0 144.5 -26.5t96.5 -76.5q37 -50 49 -121q7 -39 6 -84q0 -36 -4 -76l-70 -570q10 0 49 -2q20 -1 31 -1q2 0 7.5 -0.5t8.5 -0.5h10 q40 -2 37 -36l-5 -41h-148h-98l80 651q4 35 4 66q0 97 -42 159q-56 82 -190 81q-100 0 -192.5 -51.5t-171.5 -141.5l-51 -416l-9 -68l-24 -199l-10 -81h-97z" />
<glyph unicode="i" horiz-adv-x="452" d="M73 978l5 41h148h97l-115 -938q32 -1 50 -2q21 -1 31 -1q2 0 7.5 -0.5t7.5 -0.5h11q40 -2 36 -36l-5 -41h-148h-97l20 164l95 774l-50 2q-28 1 -31 1q-11 0 -15 1h-11q-36 2 -36 30v6zM228 1370q2 18 11.5 35t23.5 29.5t31 19.5t35.5 7t34 -7t26 -19.5t16.5 -28.5 q4 -12 4 -25v-11q-2 -18 -12 -34t-24 -28.5t-31 -19.5t-35.5 -7t-34 7t-26.5 19.5t-16 28.5q-4 11 -4 24q0 5 1 10z" />
<glyph unicode="j" horiz-adv-x="635" d="M8 -356l11 49q3 12 16 12q8 0 22.5 -4t40.5 -4q83 0 128.5 45t55.5 128l131 1068q-27 1 -49.5 2t-31 1t-15 0.5t-11.5 0.5q-40 2 -36 36l5 41h148h97l-141 -1149q-7 -53 -27.5 -98t-55 -78.5t-82.5 -52.5t-109 -19q-30 0 -53 5t-44 17zM425 1370q2 19 11.5 35.5t23 29 t31 19.5t36 7t34 -7t26 -19.5t15.5 -28.5q5 -13 5 -26q0 -5 -1 -10q-2 -18 -11.5 -34t-23.5 -28.5t-31 -19.5t-35.5 -7t-34 7t-26.5 19.5t-16 28.5q-4 11 -4 24q0 5 1 10z" />
<glyph unicode="k" horiz-adv-x="1007" d="M77 0l10 81l163 1328q-27 1 -50 2t-31 1q-5 0 -15 1h-11q-40 2 -36 36l5 41h148h97l-111 -908h47q14 0 27.5 4t30.5 19l394 335q-48 2 -51 2q-40 2 -36 36l5 41h167h41h107l-5 -41q-4 -34 -45 -36q-1 0 -13 -1q-11 -1 -26 -1q-16 -1 -34 -2l-408 -346q-11 -10 -21.5 -19 t-22.5 -15q15 -8 26 -19q10 -12 20 -25l346 -434q17 -1 34 -1q6 0 13 -0.5t9 -0.5t4 -0.5t4 -0.5h4h9q40 -2 36 -36l-5 -41h-45h-79h-6q-14 0 -24.5 5.5t-20.5 17.5l-372 459q-15 18 -28.5 25t-44.5 7h-46l-30 -247l-33 -267h-97z" />
<glyph unicode="l" horiz-adv-x="423" d="M77 0l10 81l163 1328q-27 1 -50 2q-22 1 -31 1q-12 0 -15 1h-11q-40 2 -36 36l5 41h148h97l-173 -1409q18 -1 50 -2q18 -1 31 -1q11 0 15 -1h11q40 -2 36 -36l-5 -41h-148h-97z" />
<glyph unicode="m" horiz-adv-x="1679" d="M76 978l5 41h148h53q27 0 28 -26l-9 -147q35 42 73 76.5t79.5 60t86.5 39t94 13.5q112 0 170 -65t68 -181q26 63 65 109.5t85.5 77t99 45t105.5 14.5q76 0 133 -25t93.5 -74t50.5 -121q7 -40 7 -85q0 -37 -5 -79l-70 -570l50 -2q17 -1 31 -1q13 0 15 -1h11q36 -2 36 -30 v-6l-5 -41h-148h-97l80 651q4 37 4 69q0 98 -41 158q-55 78 -175 79q-53 0 -104 -19t-93 -57.5t-71 -96t-38 -133.5l-42 -335l-38 -316h-1h-97l80 651q5 39 5 74q0 95 -36 153q-50 79 -164 79q-83 0 -159.5 -49.5t-142.5 -137.5l-59 -481l-17 -133l-9 -75l-10 -81h-97l10 81 l105 857q-24 1 -50 2q-21 1 -30 1h-16q-7 0 -11 1q-36 2 -36 30v6z" />
<glyph unicode="n" horiz-adv-x="1158" d="M76 978l5 41h148h53q27 0 28 -26l-10 -153q80 88 179.5 141.5t213.5 53.5q84 0 144.5 -26.5t96.5 -76.5t49 -121q7 -38 7 -82q0 -37 -5 -78l-70 -570q20 -1 49 -2q17 -1 31 -1q5 0 16 -1h11q36 -2 36 -30v-6l-5 -41h-148h-98l80 651q4 35 4 66q1 97 -41 159 q-56 82 -191 81q-100 0 -192.5 -51.5t-171.5 -141.5l-70 -572l-24 -192h-97l10 81l105 857q-30 1 -50 2q-21 1 -30 1h-16q-6 0 -11 1q-36 2 -36 30v6z" />
<glyph unicode="o" horiz-adv-x="1070" d="M60 510q14 120 58 216.5t112 165.5t159 106t201 37t191.5 -37t132.5 -106q50 -70 70 -166q11 -55 12 -118q0 -47 -6 -98q-14 -120 -57.5 -216t-111.5 -165t-159 -105.5t-200.5 -36.5t-191.5 36.5t-134 105.5q-50 69 -70 165q-11 55 -12 118q0 47 6 98zM161 326 q13 -82 51.5 -141t103 -90.5t155.5 -31.5t163 31.5t124.5 90t85 141t45.5 184.5q6 51 6 96.5t-6 87.5q-12 83 -50.5 142t-102.5 90.5t-155.5 31.5t-163.5 -31.5t-124.5 -90.5t-86 -142t-45.5 -184q-6 -51 -6 -97t6 -87z" />
<glyph unicode="p" horiz-adv-x="1198" d="M8 -360l5 40q4 34 45 36q5 0 13 0.5t34 1.5t61 3l150 1217q-28 1 -50 2t-31 1t-15.5 0.5t-10.5 0.5q-40 2 -36 36l5 41h147h54q13 0 20.5 -5.5t6.5 -20.5l-10 -157q79 92 176.5 146t209.5 54q189 0 278 -130q64 -95 64 -261q0 -60 -8 -129q-14 -112 -55 -208.5 t-106 -167.5t-152.5 -112t-195.5 -41q-104 0 -175 37.5t-117 112.5l-52 -416q28 -1 50 -2t31 -1.5t15.5 -0.5t10.5 -1q40 -2 36 -36l-5 -40h-148h-97h-148zM325 223q48 -88 114.5 -123.5t157.5 -35.5q90 0 162 32.5t124.5 92.5t86 143.5t45.5 183.5q8 65 8 120 q0 138 -50 214q-70 107 -228 107q-101 0 -190 -52.5t-164 -146.5z" />
<glyph unicode="q" horiz-adv-x="1050" d="M64 506q14 112 55 208.5t106.5 167.5t153 112t195.5 41q138 0 401 -57l-7 -52l-148 -1206q28 -1 50 -2t31 -1.5t15.5 -1t10.5 -0.5q40 -2 36 -36l-5 -40h-148h-97l3 27l-3 -27h-148l5 40q4 34 45 36q5 0 13 0.5t33.5 1.5t61.5 3l56 461q-79 -90 -174.5 -142t-207.5 -52 q-187 0 -276 129q-65 96 -65 262q0 59 8 128zM164 506q-8 -64 -8 -119q0 -138 51 -215q71 -107 228 -107q102 0 190 52t164 145l81 653q-203 43 -283 43h-4q-90 0 -162 -32.5t-125 -92.5t-86.5 -143.5t-45.5 -183.5z" />
<glyph unicode="r" horiz-adv-x="842" d="M76 978l5 41h148h51q17 0 24 -7t6 -25l-18 -215q64 124 154.5 194t210.5 70q46 0 84 -9.5t70 -28.5l-21 -67q-5 -16 -23 -17q-6 0 -17 4.5t-27 9.5t-40 9t-56 4q-116 0 -199 -71.5t-145 -206.5l-82 -663h-97l10 81l105 857l-50 2q-21 1 -31 1h-15q-6 0 -11 1 q-36 2 -36 30v6z" />
<glyph unicode="s" horiz-adv-x="852" d="M56 40l31 249h50q38 0 38 -42v-8t-0.5 -23.5t-2 -54t-3.5 -73.5q79 -33 195 -33q65 0 116 18t87.5 49t58.5 72.5t27 87.5q1 12 1 23q0 35 -15 61q-20 34 -57 57.5t-86 40t-100.5 33t-100 36t-84.5 49.5q-35 30 -55 72q-14 30 -14 71q0 17 2 35q7 54 36.5 104t77.5 88 t113.5 60.5t142.5 22.5q110 0 264 -54l-30 -244h-49q-38 0 -38 42v8t0.5 23.5t1.5 53t3 70.5q-79 27 -159 27q-55 0 -102.5 -16t-83 -42.5t-57.5 -62t-27 -74.5q-1 -11 -1 -21q0 -35 16 -59q20 -32 57.5 -54t85.5 -38q49 -17 100 -33t99.5 -36t85 -50t55.5 -73 q14 -31 13 -72q0 -15 -1 -32q-8 -67 -39.5 -124t-82 -99t-120 -66.5t-154.5 -24.5q-153 0 -295 56z" />
<glyph unicode="t" horiz-adv-x="679" d="M55 938l4 38l176 12l69 365q2 9 9.5 16t19.5 7h46l-48 -389h320l-9 -73h-320l-85 -691q-2 -17 -2 -33q0 -22 4 -39q7 -30 23.5 -49.5t41 -29t54.5 -9.5q37 0 65 11t49 24t34.5 23.5t20.5 10.5q8 0 15 -10l21 -43q-44 -43 -106.5 -69t-127.5 -26q-103 0 -155 57 q-40 44 -39 126q0 24 3 51l86 696h-147q-11 0 -17.5 6.5t-4.5 17.5z" />
<glyph unicode="u" horiz-adv-x="1156" d="M65 978l5 41h148h97l-80 -651q-4 -35 -4 -66q0 -97 42 -159q56 -82 191 -82q100 0 192 51t172 141l84 685q-27 1 -49 2t-31 1t-15.5 0.5t-10.5 0.5q-40 2 -36 36l5 41h147h98l-116 -938q28 -1 50 -2t31 -1t15.5 -0.5t10.5 -0.5q36 -2 36 -30v-6l-5 -41h-147h-54 q-28 0 -26 27l9 151q-82 -88 -181 -141t-213 -53q-85 0 -145.5 26.5t-96 76.5t-48.5 121q-7 38 -7 82q0 37 5 78l70 570q-28 1 -50 2t-31 1t-15.5 0.5t-10.5 0.5q-36 2 -36 30v6z" />
<glyph unicode="v" horiz-adv-x="1190" d="M57 978l5 41h74h76h207l-5 -41q-4 -34 -45 -36q-6 0 -13 -0.5t-33 -1.5q-27 -1 -61 -2l220 -748q7 -24 10 -45q1 -7 2.5 -21t2.5 -22q8 21 16 44q8 22 21 44l406 748q-27 1 -50 2t-30 1q-8 0 -14.5 0.5t-11.5 0.5q-40 2 -36 36l5 41h204h75h78l-5 -41q-4 -34 -45 -36 q-5 0 -10.5 -0.5t-23 -1t-38.5 -1.5l-511 -939h-86l-281 939l-67 3q-36 2 -36 30v6z" />
<glyph unicode="w" horiz-adv-x="1724" d="M58 978l5 41h81h75h201l-5 -41q-4 -34 -45 -36q-6 0 -13 -0.5t-33.5 -1.5t-60.5 -2l147 -748q4 -23 6 -45q3 -37 3 -43q8 22 16.5 43.5t19.5 44.5l373 811q10 23 32 23h39q22 0 27 -23l170 -811q10 -46 14 -89q6 21 14 44q7 22 18 45l332 748q-27 1 -49.5 2t-31 1 t-14.5 0.5t-11 0.5q-40 2 -36 36l5 41h199h72h86l-5 -41q-4 -34 -45 -36q-5 0 -10.5 -0.5t-23 -1t-38.5 -1.5l-430 -939h-71q-16 0 -21 22l-178 827q-3 15 -6 31q-2 16 -3 30q-5 -16 -10 -30q-5 -15 -13 -31l-384 -827q-9 -21 -27 -22h-69l-199 939q-16 1 -29 1q-13 1 -19 1 t-10.5 0.5t-8.5 0.5q-36 2 -36 30v6z" />
<glyph unicode="x" horiz-adv-x="1138" d="M40 0l5 41q4 34 45 36q2 0 56 2l367 442l-246 419q-61 2 -62 2q-40 2 -36 36l5 41h46h93h1h8h155l-5 -41q-4 -34 -46 -36q-5 0 -49 -2l213 -374q6 17 22 37l280 337q-50 2 -54 2q-40 2 -36 36l5 41h154h11h91h46l-5 -41q-4 -34 -45 -36q-1 0 -63 -3l-350 -413l260 -447 q54 -2 56 -2q40 -2 36 -36l-5 -41h-94h-54h-155l5 41q4 34 45 36q4 0 56 2l-224 397q-8 -20 -19 -35l-302 -362q57 -2 61 -2q40 -2 36 -36l-5 -41h-155h-54h-94z" />
<glyph unicode="y" horiz-adv-x="1186" d="M56 978l5 41h68h81h208l-5 -41q-3 -34 -45 -36q-6 0 -13.5 -0.5t-33 -1.5t-60.5 -2l228 -736q4 -15 7 -32q3 -16 5 -32q7 16 15 32q7 16 15 32l405 736q-27 1 -49 2t-30.5 1t-14.5 0.5t-11 0.5q-40 2 -36 36l5 41h205h75h77l-5 -41q-4 -34 -45 -36q-5 0 -10.5 -0.5 t-23 -1t-37.5 -1.5l-707 -1267q-8 -14 -19 -23t-29 -9h-70l228 398l-285 901q-61 2 -62 3q-36 2 -36 30v6z" />
<glyph unicode="z" horiz-adv-x="977" d="M42 0l5 39q2 17 20 38l746 865h-516q-6 -35 -13 -67t-11 -50t-5 -22q-9 -50 -50 -50h-50l32 257l1 9h736l-5 -41q-3 -22 -19 -39l-744 -862h559q6 33 12 62.5t10 46.5t5 21q8 50 50 50h10h40l-32 -257h-37h-16h-728z" />
<glyph unicode="{" horiz-adv-x="651" d="M62 610l8 63q36 0 67 11t54.5 32t38.5 49.5t19 61.5q7 56 3.5 109.5t-8 107t-7.5 107t4 111.5q8 62 33.5 115.5t67.5 92.5t98.5 61t123.5 22h57l-6 -43q-1 -11 -10.5 -17t-17.5 -6h-34q-44 0 -82 -15.5t-68 -44t-49.5 -69.5t-26.5 -91q-7 -58 -4.5 -113.5t7 -109.5 t7.5 -107.5t-4 -108.5q-5 -38 -21.5 -69.5t-40.5 -55t-53 -39.5t-60 -23q29 -6 54.5 -22t43.5 -40t27 -55t4 -69q-7 -54 -22.5 -108t-33.5 -108.5t-34 -109.5t-23 -113q-6 -50 3.5 -91t32.5 -69.5t57 -44t78 -15.5h34q8 0 16 -6t7 -17l-5 -43h-57q-68 0 -118.5 22 t-82.5 61.5t-45 92.5t-6 116q7 57 23.5 110.5t34.5 107t34 107t23 109.5q4 34 -3.5 62t-26 49t-47 32t-64.5 11z" />
<glyph unicode="|" horiz-adv-x="420" d="M171 -360v1913h77v-1913h-77z" />
<glyph unicode="}" horiz-adv-x="667" d="M37 -270l5 43q1 11 10 17t19 6h33q44 0 82.5 15.5t68 44t49.5 69.5t26 91q7 57 4.5 112.5t-7 110t-7 108t4.5 108.5q5 38 20.5 69t39.5 55t53.5 40t59.5 22q-29 7 -54 23t-43 39.5t-26.5 55.5t-4.5 69q7 54 23 108t33.5 108t33.5 109t24 114q6 50 -4 91t-32.5 69.5 t-57 44t-78.5 15.5h-34q-9 0 -16.5 6t-5.5 17l5 43h56q68 0 119 -22t83 -61t45 -92.5t5 -115.5q-7 -57 -23.5 -111t-34 -107.5t-34 -106.5t-23.5 -110q-4 -34 4 -62t26.5 -49t46 -32t63.5 -11l-8 -63q-36 0 -66.5 -11t-54 -32t-38 -49t-18.5 -62q-7 -56 -4 -109.5t8 -107 t8 -107t-4 -110.5q-8 -62 -34 -115.5t-67.5 -93t-98 -61.5t-124.5 -22h-56z" />
<glyph unicode="~" horiz-adv-x="1170" d="M116 444q7 56 29 104.5t57 84.5t82.5 56.5t104.5 20.5q53 0 105.5 -20t102.5 -44.5t98 -44.5t92 -20q38 0 71 13.5t57.5 38t40 58.5t20.5 74h80q-7 -56 -29 -104.5t-57.5 -84t-83 -56t-104.5 -20.5q-52 0 -104.5 20t-103 44.5t-98.5 44.5t-92 20q-39 0 -71 -14 t-56.5 -38.5t-40.5 -58.5t-21 -74h-79z" />
<glyph unicode="&#xa1;" horiz-adv-x="459" d="M76 -360l69 563q6 46 12 87t12.5 83.5t15.5 89.5t19 104h67q-4 -57 -7 -104t-6.5 -89.5t-7.5 -83.5t-10 -87l-69 -563h-95zM185 941q5 40 35.5 67t70.5 27q19 0 36 -7t28 -20t16.5 -30t3.5 -37q-3 -20 -12.5 -37.5t-24 -30.5t-33 -20.5t-37.5 -7.5q-40 0 -64 28t-19 68z " />
<glyph unicode="&#xa2;" horiz-adv-x="939" d="M76 510q14 117 57 213t110 165.5t158 108.5q67 29 145 36l1 2l12 68l24 142q3 13 11.5 23t23.5 10h37l-24 -134l-1 -6l-17 -103q38 -2 104.5 -18t114.5 -31l47 -15l-31 -256h-50q-42 0 -38 49q0 4 0.5 25t2 57.5t4.5 77.5q-92 35 -168 34v-1l-116 -673l-38 -219 q16 -1 29 -1q74 0 125.5 17t86.5 37.5t56 38t32 17.5q13 0 19 -10l23 -33q-27 -31 -66.5 -57.5t-86.5 -46t-101.5 -30t-111.5 -10.5h-18l-37 -214q-3 -13 -11.5 -22.5t-23.5 -9.5h-36l20 120l23 133q-49 9 -90 28q-76 35 -125.5 102t-70 164.5t-5.5 221.5zM175 510 q-13 -108 2 -190.5t54 -139.5t101 -87q23 -11 49 -18l153 879q-52 -7 -97 -27q-72 -31 -125.5 -89.5t-88.5 -141.5t-48 -186z" />
<glyph unicode="&#xa3;" horiz-adv-x="1229" d="M49 0l8 67q36 13 71.5 33.5t65 50t49 69.5t26.5 93l41 334h-206l4 33q2 15 13 25.5t28 10.5h169l37 301q12 95 48.5 177t96.5 142t144 94t188 34q78 0 135 -19t97.5 -51.5t67 -76.5t42.5 -93l-41 -23q-10 -5 -24 -5q-17 0 -28 17q-17 32 -36 62.5t-48 54t-71.5 37 t-103.5 13.5q-80 0 -143 -26.5t-110 -74t-75.5 -114.5t-38.5 -148l-37 -301h490l-5 -40q-1 -11 -11 -20t-23 -9h-460l-38 -311q-11 -91 -55.5 -153t-114.5 -106q23 4 45 6t46 2h806l-5 -41q-2 -15 -16 -29.5t-35 -14.5h-993z" />
<glyph unicode="&#xa4;" horiz-adv-x="1102" d="M72 307l177 157q-31 46 -45.5 102t-6.5 121q8 63 35.5 119t69.5 102l-138 158l56 51l139 -158q51 37 109.5 58.5t123.5 21.5q63 0 116.5 -21t94.5 -57l177 157l44 -51l-176 -157q31 -46 46 -102t7 -121q-8 -63 -36 -119t-70 -102l138 -158l-57 -51l-139 158 q-51 -37 -109.5 -58t-122 -21t-117 20.5t-94.5 57.5l-178 -158zM271 687q-7 -57 9 -107.5t48.5 -87.5t80.5 -59t105.5 -22t111 22t96 59t70.5 87.5t35 107.5t-9 108t-49 89t-81 60t-105.5 22t-111 -22t-95.5 -60t-70 -89t-35 -108z" />
<glyph unicode="&#xa5;" horiz-adv-x="1166" d="M66 391l7 60h375l14 120h-374l7 60h354l-331 818h80q27 0 37 -26l271 -681q6 -20 10.5 -38t7.5 -35q13 34 35 73l437 681q7 11 17.5 18.5t24.5 7.5h82l-534 -818h356l-7 -60h-375l-15 -120h375l-8 -60h-374l-48 -391h-98l48 391h-374z" />
<glyph unicode="&#xa6;" horiz-adv-x="431" d="M52 -360l98 795h77l-98 -795h-77zM189 757l98 796h77l-98 -796h-77z" />
<glyph unicode="&#xa7;" horiz-adv-x="965" d="M51 -10l28 35q6 8 12.5 12t18.5 4q13 0 30.5 -16.5t47 -35.5t74.5 -35t115 -16q63 0 114.5 17t89 48t60 72.5t28.5 89.5q6 52 -16 91t-62 69t-93 54.5t-108 49.5t-107.5 51.5t-92 62t-60.5 81t-13 107.5q10 79 64 142t164 101q-52 38 -81 88.5t-19 126.5q7 55 36.5 104.5 t77.5 88t113.5 61t142.5 22.5q93 0 162 -27t123 -81l-26 -35q-9 -13 -24 -13q-11 0 -27.5 12.5t-43.5 28t-68 28.5t-103 13q-57 0 -105.5 -16t-84.5 -43t-58.5 -63t-27.5 -76q-6 -47 15.5 -82t60 -63t89 -51.5t103 -48t102.5 -53t87.5 -64t57.5 -83.5t12 -111 q-10 -85 -61 -148t-140 -99q51 -39 79 -89t20 -121q-8 -67 -39.5 -124t-82 -99t-120 -66.5t-154.5 -24.5q-108 0 -181.5 34t-128.5 90zM205 744q-5 -42 11 -75t47 -60t73 -50t89 -45t94 -43q48 -22 91 -48q77 33 115 82t45 111q6 46 -8 82t-42 64.5t-66.5 51t-82 43.5 t-89 41t-86.5 43q-96 -39 -139.5 -87.5t-51.5 -109.5z" />
<glyph unicode="&#xa8;" horiz-adv-x="773" d="M142 1315q2 17 10.5 32.5t22 27t29 18.5t32 7t31.5 -7t24.5 -18.5t15 -27t3.5 -32.5q-2 -16 -11 -31t-21.5 -26.5t-29.5 -18t-33.5 -6.5t-30.5 6.5t-24 18t-15 26t-3 31.5zM492 1315q2 17 10.5 32.5t22 27t29 18.5t33.5 7q16 0 31 -7t25 -18.5t15 -27t3 -32.5 q-2 -16 -11 -31t-21.5 -26.5t-29.5 -18t-33 -6.5q-17 0 -31 6.5t-24.5 18t-15.5 26t-3 31.5z" />
<glyph unicode="&#xa9;" horiz-adv-x="1653" d="M90 725q12 101 50.5 196t96 177t133.5 149.5t163.5 115.5t185 74.5t200 26.5t193.5 -26.5t167.5 -74.5t136 -115.5t97 -149.5t52.5 -177t2 -196q-13 -102 -51 -196.5t-95.5 -176.5t-133.5 -149.5t-164 -115.5t-185.5 -74.5t-200.5 -26.5q-101 0 -192.5 26.5t-167.5 74.5 t-135.5 115.5t-97 149.5t-52.5 176.5t-2 196.5zM150.5 725q-17.5 -142 20 -266.5t118 -217.5t197.5 -146t258 -53t272 53t234.5 146t172 217.5t86 266.5t-20.5 266.5t-118.5 218t-198.5 147t-259 53.5t-271 -53.5t-233.5 -147t-171.5 -218t-85.5 -266.5zM390 726 q13 102 57.5 187t113.5 146t158 95t190 34q53 0 97 -8t80 -22.5t66 -35.5t59 -49l-29 -34q-9 -11 -22 -11q-10 0 -25.5 13.5t-43 29t-72.5 29t-115 13.5q-85 0 -158 -27t-128.5 -77.5t-91.5 -122t-47 -160.5q-11 -92 7 -164t60 -121.5t105 -75.5t142 -26q87 0 152.5 21 t126.5 64q14 10 24 10q5 0 9 -2t6 -4l28 -32q-68 -60 -154.5 -96t-204.5 -36q-98 0 -176.5 33.5t-130 94t-74 145.5t-9.5 189z" />
<glyph unicode="&#xaa;" horiz-adv-x="702" d="M104 1005q5 37 30.5 70t76 58t128 41t185.5 18l7 52q10 78 -20 118.5t-105 40.5q-44 0 -75.5 -11.5t-54 -24t-37.5 -24t-26 -11.5q-15 0 -21 14l-10 23q55 49 112.5 72t125.5 23q103 0 149.5 -59.5t33.5 -160.5l-47 -385h-33q-11 0 -15.5 4t-8.5 16l-2 69 q-28 -24 -55.5 -42t-56 -30.5t-60.5 -19t-69 -6.5q-34 0 -63.5 9t-50.5 28t-32 48.5t-6 69.5zM175 1009q-3 -28 4 -48t22.5 -33t36 -18.5t44.5 -5.5q34 0 63.5 7.5t56 20t51 30t48.5 37.5l17 142q-173 -5 -254.5 -40t-88.5 -92z" />
<glyph unicode="&#xab;" horiz-adv-x="770" d="M88 525l2 14l294 387l29 -16q15 -10 13 -25q-2 -12 -10 -24l-224 -300q-16 -20 -26 -30q9 -8 19 -28l150 -301q6 -11 4 -24q-2 -15 -19 -25l-33 -16zM349 525l2 14l294 387l29 -16q15 -10 13 -25q-2 -12 -10 -24l-224 -300q-16 -20 -26 -30q9 -8 19 -28l150 -301 q6 -11 4 -24q-2 -15 -19 -25l-33 -16z" />
<glyph unicode="&#xac;" horiz-adv-x="1105" d="M118 649l9 75h849l-46 -377h-84l37 302h-765z" />
<glyph unicode="&#xad;" horiz-adv-x="743" d="M131 566l10 83h476l-10 -83h-476z" />
<glyph unicode="&#xae;" horiz-adv-x="1653" d="M90 725q12 101 50.5 196t96 177t133.5 149.5t163.5 115.5t185 74.5t200 26.5t193.5 -26.5t167.5 -74.5t136 -115.5t97 -149.5t52.5 -177t2 -196q-13 -102 -51 -196.5t-95.5 -176.5t-133.5 -149.5t-164 -115.5t-185.5 -74.5t-200.5 -26.5q-101 0 -192.5 26.5t-167.5 74.5 t-135.5 115.5t-97 149.5t-52.5 176.5t-2 196.5zM150.5 725q-17.5 -142 20 -266.5t118 -217.5t197.5 -146t258 -53t272 53t234.5 146t172 217.5t86 266.5t-20.5 266.5t-118.5 218t-198.5 147t-259 53.5t-271 -53.5t-233.5 -147t-171.5 -218t-85.5 -266.5zM499 272l111 907 h253q157 0 230 -59t58 -180q-13 -102 -86.5 -167.5t-195.5 -82.5q11 -7 19.5 -16.5t16.5 -24.5l245 -377h-82q-10 0 -17 3.5t-12 13.5l-233 359q-7 11 -19 18t-39 7h-113l-49 -401h-87zM643 738h152q124 0 191 50t78 143q12 94 -38 137t-171 43h-166z" />
<glyph unicode="&#xaf;" horiz-adv-x="816" d="M138 1282l8 67h558l-8 -67h-558z" />
<glyph unicode="&#xb0;" horiz-adv-x="816" d="M111 1161.5q8 63.5 39 119t77.5 97t105.5 65t123.5 23.5t118 -23.5t90 -65t53.5 -97t9.5 -119t-38.5 -119t-77.5 -97t-106 -65.5t-124 -24t-118 24t-89.5 65.5t-53.5 97t-9.5 119zM184 1161q-6 -49 7 -92t41 -74.5t68.5 -50t89.5 -18.5t94.5 18.5t80.5 50t59 74.5t30 92 t-7.5 92t-40.5 75.5t-68 51t-90 18.5t-94 -18.5t-81 -51t-59.5 -75.5t-29.5 -92z" />
<glyph unicode="&#xb1;" horiz-adv-x="1176" d="M61 82l10 75h961l-9 -75h-962zM136 690l9 75h441l51 416h80l-52 -416h442l-9 -75h-442l-50 -411h-80l50 411h-440z" />
<glyph unicode="&#xb2;" horiz-adv-x="693" d="M81 922l3 24q1 8 5 16.5t13 15.5l271 243q32 29 60 57q28 29 51 58t37.5 59.5t18.5 63.5q4 36 -4.5 62.5t-26 44t-43 26.5t-54.5 9q-63 0 -104.5 -36.5t-68.5 -93.5q-10 -19 -31 -19q-2 0 -8 1t-9 1l-30 5q26 99 96.5 151.5t165.5 52.5q45 0 83 -13.5t64.5 -38.5 t38.5 -62.5t6 -86.5q-5 -41 -22 -76.5t-42.5 -67.5t-58 -62.5t-66.5 -61.5l-239 -215q20 5 40.5 7.5t40.5 2.5h241q2 10 4.5 21.5t4 18t1.5 9.5q8 43 44 43h23l-14 -116l-6 -43h-71h-414z" />
<glyph unicode="&#xb3;" horiz-adv-x="672" d="M81 1102l32 13q4 2 8 3t9 1q8 0 15 -4t9 -12l2 -8q3 -12 10 -33t23 -39.5t44.5 -33t74.5 -14.5q42 0 75.5 13.5t57 35.5t37.5 48.5t17 51.5q4 34 -3.5 60.5t-28.5 45.5t-57.5 29.5t-90.5 10.5l6 50q93 2 143.5 40.5t58.5 102.5q4 35 -4 60.5t-26 42.5t-43 25.5t-55 7.5 q-65 0 -106.5 -33t-66.5 -93q-9 -20 -27 -21q-7 0 -23 3l-25 4q26 98 96 150.5t163 52.5q45 0 82 -13t62.5 -37t37.5 -58t7 -78q-8 -68 -50.5 -112.5t-106.5 -64.5q73 -17 107 -60t26 -111q-6 -49 -30 -88.5t-60 -67.5t-82 -43.5t-95 -15.5q-61 0 -101 15.5t-65 41.5 t-37.5 60.5t-19.5 71.5z" />
<glyph unicode="&#xb4;" horiz-adv-x="559" d="M115 1189l190 244q14 18 27 25t38 7h96l-253 -259q-9 -10 -18.5 -13.5t-21.5 -3.5h-58z" />
<glyph unicode="&#xb5;" horiz-adv-x="1140" d="M75 -317l164 1336h99l-80 -651q-18 -143 37.5 -225t189.5 -82q99 0 191.5 51t172.5 141l94 766h98l-125 -1019h-54q-29 0 -27 27l10 151q-83 -90 -176 -137t-197 -47q-100 0 -163 39.5t-92 112.5q0 -44 -4 -89t-9 -82l-41 -335h-49q-20 0 -30.5 11t-8.5 32z" />
<glyph unicode="&#xb6;" horiz-adv-x="1368" d="M85 1089q10 82 49.5 148.5t103.5 113.5t151 72.5t193 25.5h741l-10 -84h-231l-191 -1560h-87l191 1560h-336l-191 -1560h-88l112 911q-105 0 -186 28.5t-133 78.5t-75 118.5t-13 147.5z" />
<glyph unicode="&#xb7;" horiz-adv-x="462" d="M130 606q3 22 13.5 41.5t26 33.5t35 22.5t39.5 8.5q22 0 40.5 -8.5t31 -22.5t18 -33.5t3.5 -41.5q-3 -20 -13.5 -39t-26.5 -33t-36.5 -22t-41.5 -8q-20 0 -38 8t-30 22t-18 33t-3 39z" />
<glyph unicode="&#xb8;" horiz-adv-x="584" d="M105 -321l14 29q8 12 18 12q5 0 13 -5.5t21 -12t33 -12t50 -5.5q52 0 84 22.5t36 61.5q3 26 -8 42.5t-34 27.5t-55.5 17.5t-72.5 11.5l60 137h63l-43 -98q89 -16 133 -47t36 -91q-4 -31 -20.5 -55.5t-43.5 -41.5t-63 -26.5t-77 -9.5q-42 0 -80.5 12t-63.5 31z" />
<glyph unicode="&#xb9;" horiz-adv-x="552" d="M92 922l6 50h162l68 553l9 38l-164 -129q-9 -6 -17 -7q-11 0 -17 10l-19 31l240 189h59l-84 -685h150l-6 -50h-387z" />
<glyph unicode="&#xba;" horiz-adv-x="795" d="M116 1155q9 71 36 127.5t70 97t100 62t127 21.5q68 0 119.5 -21.5t84.5 -62t46 -97t4 -127.5t-36 -127.5t-69.5 -97t-99.5 -62t-125 -21.5q-70 0 -121.5 21.5t-85 62t-46.5 97t-4 127.5zM194 1155q-14 -117 31 -183t155 -66q106 0 168.5 66t76.5 183q14 116 -31.5 182.5 t-151.5 66.5q-110 0 -172 -66.5t-76 -182.5z" />
<glyph unicode="&#xbb;" horiz-adv-x="771" d="M80 179q1 11 10 23l224 301q8 11 14.5 17.5t11.5 10.5q-4 5 -9 12t-9 18l-151 300q-6 11 -4 24q2 16 20 25l33 16l199 -387l-1 -14l-295 -388l-29 16q-16 9 -14 26zM341 179q1 11 10 23l225 301q8 11 14 17.5t12 10.5q-4 5 -9.5 12t-9.5 18l-151 300q-6 11 -4 24 q2 16 20 25l33 16l199 -387l-1 -14l-295 -388l-29 16q-16 9 -14 26z" />
<glyph unicode="&#xbc;" horiz-adv-x="1315" d="M66 718l6 50h161l68 553l9 38l-163 -129q-9 -6 -17 -6q-11 0 -18 9l-18 32l239 188h59l-84 -685h151l-6 -50h-387zM122 0l992 1413q12 17 26.5 26.5t34.5 9.5h43l-995 -1417q-14 -18 -28.5 -25t-31.5 -7h-41zM700 249l420 483h69l-59 -479h129l-5 -37q-2 -16 -19 -16 h-112l-24 -200h-65l25 200h-333q-24 0 -24 16zM772 253h293l42 343q3 24 10 53z" />
<glyph unicode="&#xbd;" horiz-adv-x="1330" d="M72 718l6 50h162l68 553l8 38l-163 -129q-9 -6 -17 -6q-11 0 -17 9l-19 32l239 188h59l-84 -685h151l-6 -50h-387zM80 0l993 1413q12 17 26 26.5t34 9.5h43l-995 -1417q-14 -18 -28.5 -25t-31.5 -7h-41zM710 0l3 25q1 8 5 16t13 15l270 243q32 29 61 57q28 29 51 58 t37.5 60t18.5 64q4 36 -4.5 62.5t-26 43.5t-43.5 26t-54 9q-63 0 -104.5 -36.5t-69.5 -92.5q-10 -19 -30 -20q-2 0 -8 1t-9 1l-30 6q26 99 96 151t165 52q45 0 83.5 -13t64.5 -38.5t38.5 -62.5t6.5 -87q-5 -41 -22.5 -76t-42.5 -67.5t-57.5 -63t-67.5 -60.5l-238 -216 q20 5 40.5 8t40.5 3h241q2 10 4.5 21.5t4 17.5t1.5 9q8 43 44 43h22l-14 -116l-5 -43h-71h-414z" />
<glyph unicode="&#xbe;" horiz-adv-x="1384" d="M65 898l32 13q4 2 8 3t9 1q8 0 14.5 -4t8.5 -12l2 -8q3 -12 10 -32.5t23.5 -39.5t45 -33.5t74.5 -14.5q42 0 75 14t57 35.5t38 48t17 52.5q4 34 -3.5 60.5t-28.5 45t-58 29t-91 10.5l6 50q93 2 143.5 40.5t58.5 103.5q4 35 -4 60.5t-26 42t-43 25t-54 8.5 q-63 0 -106 -36.5t-68 -90.5q-10 -20 -27 -21h-3q-2 0 -6.5 1t-13.5 2t-24 4q26 98 95.5 150.5t162.5 52.5q45 0 82.5 -12.5t62.5 -37t37.5 -58.5t6.5 -78q-8 -68 -50.5 -112.5t-105.5 -63.5q73 -17 106.5 -60.5t25.5 -110.5q-6 -49 -29.5 -88.5t-60 -68t-82.5 -43.5 t-95 -15q-61 0 -100.5 15t-64.5 41.5t-38 60.5t-19 71zM198 0l993 1413q12 17 26 26.5t34 9.5h43l-995 -1417q-7 -9 -14 -15.5t-14 -9.5q-15 -7 -32 -7h-41zM768 249l420 483h69l-59 -479h129l-5 -37q-2 -16 -19 -16h-112l-24 -200h-65l25 200h-333q-24 0 -24 16zM840 253 h293l42 343q3 24 10 53z" />
<glyph unicode="&#xbf;" horiz-adv-x="815" d="M70 -65q10 78 41 133t72.5 94.5t88 68.5t87.5 54.5t70.5 52.5t35.5 62l32 167h67l-16 -174v-5q-5 -43 -33.5 -73.5t-68.5 -57.5t-86 -54t-87 -62.5t-71 -83t-39 -114.5q-7 -55 9.5 -99t49.5 -74t79 -46t99 -16q71 0 121.5 18t86 40t56 40t30.5 18q9 0 13.5 -3.5t7.5 -9.5 l21 -40q-31 -28 -69 -53.5t-82 -45.5t-94.5 -32t-107.5 -12q-71 0 -132.5 21t-104 60.5t-64 96.5t-12.5 129zM483 940q2 19 11.5 36.5t24 30.5t32.5 20.5t38 7.5q19 0 36 -7.5t28 -20.5t16.5 -30.5t3.5 -36.5q-3 -20 -12.5 -37t-24 -30t-33 -20t-37.5 -7q-40 0 -64 27 t-19 67z" />
<glyph unicode="&#xc0;" d="M37 0l6 47q4 37 44 41l67 7l721 1354h104l388 -1354l65 -7q39 -4 35 -41l-6 -47h-67h-42h-39h-13h-192l5 47q5 39 52 42q4 0 13 1t29.5 2t52.5 3l-101 354l-7 26h-690l-14 -26l-187 -354q31 -2 51.5 -3t29 -2t12.5 -1q47 -2 42 -42l-6 -47h-192h-14h-39h-41h-67zM503 553 h628l-199 706q-5 17 -9 39q-5 23 -9 47q-10 -24 -20 -47q-9 -22 -19 -41zM669 1812h116q25 0 36 -4.5t24 -17.5l207 -211h-72q-12 0 -20 2t-18 10z" />
<glyph unicode="&#xc1;" d="M37 0l6 47q4 37 44 41l67 7l721 1354h104l388 -1354l65 -7q39 -4 35 -41l-6 -47h-67h-42h-39h-13h-192l5 47q5 39 52 42q4 0 13 1t29.5 2t52.5 3l-101 354l-7 26h-690l-14 -26l-187 -354q31 -2 51.5 -3t29 -2t12.5 -1q47 -2 42 -42l-6 -47h-192h-14h-39h-41h-67zM503 553 h628l-199 706q-5 17 -9 39q-5 23 -9 47q-10 -24 -20 -47q-9 -22 -19 -41zM827 1579l258 211q16 13 29 17.5t38 4.5h114l-326 -221q-11 -7 -20 -9.5t-21 -2.5h-72z" />
<glyph unicode="&#xc2;" d="M37 0l6 47q4 37 44 41l67 7l721 1354h104l388 -1354l65 -7q39 -4 35 -41l-6 -47h-67h-42h-39h-13h-192l5 47q5 39 52 42q4 0 13 1t29.5 2t52.5 3l-101 354l-7 26h-690l-14 -26l-187 -354q31 -2 51.5 -3t29 -2t12.5 -1q47 -2 42 -42l-6 -47h-192h-14h-39h-41h-67zM503 553 h628l-199 706q-5 17 -9 39q-5 23 -9 47q-10 -24 -20 -47q-9 -22 -19 -41zM655 1579l266 204h92l216 -204h-75q-8 0 -17.5 2.5t-16.5 7.5l-144 126q-7 6 -10 9l-5 6q-2 -2 -6 -5.5t-13 -9.5l-176 -126q-8 -5 -17.5 -7.5t-17.5 -2.5h-76z" />
<glyph unicode="&#xc3;" d="M37 0l6 47q4 37 44 41l67 7l721 1354h104l388 -1354l65 -7q39 -4 35 -41l-6 -47h-67h-42h-39h-13h-192l5 47q5 39 52 42q4 0 13 1t29.5 2t52.5 3l-101 354l-7 26h-690l-14 -26l-187 -354q31 -2 51.5 -3t29 -2t12.5 -1q47 -2 42 -42l-6 -47h-192h-14h-39h-41h-67zM503 553 h628l-199 706q-5 17 -9 39q-5 23 -9 47q-10 -24 -20 -47q-9 -22 -19 -41zM687 1590q4 35 17.5 66t35 54t49.5 35.5t63 12.5t63.5 -16.5t55 -35t51 -35t52.5 -16.5q43 0 69 28t32 72h56q-4 -36 -17.5 -66t-33.5 -53t-48.5 -36t-63.5 -13q-34 0 -62.5 16.5t-55 35.5 t-51.5 35.5t-53 16.5q-43 0 -68.5 -29t-32.5 -72h-58z" />
<glyph unicode="&#xc4;" d="M37 0l6 47q4 37 44 41l67 7l721 1354h104l388 -1354l65 -7q39 -4 35 -41l-6 -47h-67h-42h-39h-13h-192l5 47q5 39 52 42q4 0 13 1t29.5 2t52.5 3l-101 354l-7 26h-690l-14 -26l-187 -354q31 -2 51.5 -3t29 -2t12.5 -1q47 -2 42 -42l-6 -47h-192h-14h-39h-41h-67zM503 553 h628l-199 706q-5 17 -9 39q-5 23 -9 47q-10 -24 -20 -47q-9 -22 -19 -41zM661 1705q2 16 10.5 31.5t21.5 27.5t28.5 18.5t32 6.5t31 -6.5t24.5 -18.5t15 -27.5t3 -31.5t-11 -31t-21.5 -26t-28.5 -17.5t-32.5 -6.5t-30.5 6.5t-24 17.5t-15 26t-3 31zM1087 1705q4 34 32 59 t62 25q16 0 30 -6.5t24.5 -18.5t15 -27.5t2.5 -31.5t-10.5 -31t-21.5 -26t-28.5 -17.5t-32.5 -6.5t-31 6.5t-24 17.5t-15 26t-3 31z" />
<glyph unicode="&#xc5;" d="M37 0l6 47q4 37 44 41l67 7l721 1354h104l388 -1354l65 -7q39 -4 35 -41l-6 -47h-67h-42h-39h-13h-192l5 47q5 39 52 42q4 0 13 1t29.5 2t52.5 3l-101 354l-7 26h-690l-14 -26l-187 -354q31 -2 51.5 -3t29 -2t12.5 -1q47 -2 42 -42l-6 -47h-192h-14h-39h-41h-67zM503 553 h628l-199 706q-5 17 -9 39q-5 23 -9 47q-10 -24 -20 -47q-9 -22 -19 -41zM782 1669q4 35 21.5 65t43.5 51.5t58.5 34t67.5 12.5t65 -12.5t50.5 -34t30.5 -51.5t6 -65q-4 -36 -21.5 -65.5t-43.5 -51t-59 -33.5t-68 -12t-64.5 12t-50 33.5t-30.5 51t-6 65.5zM836 1669 q-6 -51 22.5 -84t81.5 -33q51 0 87.5 33t43 84t-22.5 84t-80 33q-52 0 -89 -33t-43 -84z" />
<glyph unicode="&#xc6;" horiz-adv-x="2072" d="M38 0l6 47q4 37 44 41l66 7l860 1274q-21 1 -40 2t-29 1h-14q-40 2 -36 36l5 41h168h5h978l-10 -87l-27 -213h-49q-42 0 -38 50q2 28 12 163h-733l2 -586h575l-11 -85h-563l2 -604h571q5 26 12.5 71.5t11.5 65.5q1 5 2 11.5t1.5 10t0.5 4.5q9 50 50 50h50l-26 -213 l-11 -87h-738h-21h-151l5 41q4 34 45 36q4 0 15.5 0.5t35 1t49.5 1.5l-2 369h-610l-238 -354q31 -2 51 -3t28.5 -2t12.5 -1q47 -2 42 -42l-6 -47h-192h-29h-24h-56h-52zM554 526h557l-4 843q-11 -27 -24.5 -50.5t-27.5 -46.5z" />
<glyph unicode="&#xc7;" horiz-adv-x="1340" d="M75 725q20 165 89 301t174.5 234t242.5 151.5t295 53.5q203 0 450 -104l-40 -326h-50q-42 0 -38 49q2 24 16 222q-151 70 -349 69q-132 0 -248.5 -45.5t-206.5 -130t-149.5 -205t-77.5 -269.5q-19 -154 10.5 -274.5t97 -204t168 -128t224.5 -44.5q78 0 140 10t115.5 30.5 t101.5 50.5t95 69q6 4 11 7t11 3q11 0 17 -7l35 -44q-51 -48 -109 -86.5t-124 -66t-143 -42.5q-71 -14 -156 -14l-4 -8l-29 -69q89 -16 132.5 -47t36.5 -91q-4 -31 -20.5 -55.5t-44 -41.5t-63.5 -26.5t-77 -9.5q-42 0 -80.5 12t-62.5 32l14 28q8 12 18 12q5 0 13 -5.5 t21 -12t33 -12t49 -5.5q52 0 84 22.5t37 61.5q3 26 -8 42.5t-34 27.5t-56 18q-33 6 -72 11l51 117q-121 7 -219 51q-119 53 -197 150t-111 234t-13 305z" />
<glyph unicode="&#xc8;" horiz-adv-x="1273" d="M34 0l5 41q4 34 45 36q5 0 19.5 0.5t45.5 1.5t67 2l158 1287q-36 1 -66.5 2t-45.5 1.5t-19 0.5q-40 2 -36 36l5 41h172h869l-11 -87l-26 -213h-50q-42 0 -38 50q2 28 12 163h-661l-72 -586h577l-11 -85h-576l-75 -604h661q5 26 12.5 71.5t11 66t4.5 25.5q9 50 51 50h49 l-26 -213l-10 -87h-869h-172zM571 1812h116q25 0 36 -4.5t24 -17.5l207 -211h-73q-12 0 -20 2t-17 10z" />
<glyph unicode="&#xc9;" horiz-adv-x="1273" d="M34 0l5 41q4 34 45 36q5 0 19.5 0.5t45.5 1.5t67 2l158 1287q-36 1 -66.5 2t-45.5 1.5t-19 0.5q-40 2 -36 36l5 41h172h869l-11 -87l-26 -213h-50q-42 0 -38 50q2 28 12 163h-661l-72 -586h577l-11 -85h-576l-75 -604h661q5 26 12.5 71.5t11 66t4.5 25.5q9 50 51 50h49 l-26 -213l-10 -87h-869h-172zM729 1579l258 211q16 13 29 17.5t38 4.5h114l-326 -221q-11 -7 -20 -9.5t-21 -2.5h-72z" />
<glyph unicode="&#xca;" horiz-adv-x="1273" d="M34 0l5 41q4 34 45 36q5 0 19.5 0.5t45.5 1.5t67 2l158 1287q-36 1 -66.5 2t-45.5 1.5t-19 0.5q-40 2 -36 36l5 41h172h869l-11 -87l-26 -213h-50q-42 0 -38 50q2 28 12 163h-661l-72 -586h577l-11 -85h-576l-75 -604h661q5 26 12.5 71.5t11 66t4.5 25.5q9 50 51 50h49 l-26 -213l-10 -87h-869h-172zM557 1579l266 204h92l215 -204h-74q-8 0 -17.5 2.5t-16.5 7.5l-144 126q-7 6 -10 9l-5 6q-2 -2 -6 -5.5t-13 -9.5l-176 -126q-8 -5 -17.5 -7.5t-17.5 -2.5h-76z" />
<glyph unicode="&#xcb;" horiz-adv-x="1273" d="M34 0l5 41q4 34 45 36q5 0 19.5 0.5t45.5 1.5t67 2l158 1287q-36 1 -66.5 2t-45.5 1.5t-19 0.5q-40 2 -36 36l5 41h172h869l-11 -87l-26 -213h-50q-42 0 -38 50q2 28 12 163h-661l-72 -586h577l-11 -85h-576l-75 -604h661q5 26 12.5 71.5t11 66t4.5 25.5q9 50 51 50h49 l-26 -213l-10 -87h-869h-172zM563 1705q2 16 10.5 31.5t21.5 27.5t28.5 18.5t32 6.5t31 -6.5t24 -18.5t15 -27.5t3.5 -31.5t-11 -31t-21.5 -26t-29 -17.5t-32.5 -6.5t-30 6.5t-24 17.5t-15 26t-3 31zM989 1705q4 34 32 59t61 25q16 0 30.5 -6.5t24.5 -18.5t15 -27.5t3 -31.5 t-10.5 -31t-21.5 -26t-29 -17.5t-32 -6.5q-17 0 -31 6.5t-24 17.5t-15 26t-3 31z" />
<glyph unicode="&#xcc;" horiz-adv-x="679" d="M34 0l5 41q4 34 45 36q5 0 19.5 0.5t45.5 1.5t67 2l158 1287q-36 1 -66.5 2t-45.5 1.5t-19 0.5q-40 2 -36 36l5 41h172h106h172l-5 -41q-4 -34 -45 -36q-4 0 -19 -0.5t-46 -1.5t-67 -2l-158 -1287q36 -1 66.5 -2t45.5 -1.5t19 -0.5q40 -2 36 -36l-5 -41h-172h-106h-172z M183 1812h116q25 0 36 -4.5t23 -17.5l208 -211h-73q-12 0 -20 2t-17 10z" />
<glyph unicode="&#xcd;" horiz-adv-x="786" d="M34 0l5 41q4 34 45 36q5 0 19.5 0.5t45.5 1.5t67 2l158 1287q-36 1 -66.5 2t-45.5 1.5t-19 0.5q-40 2 -36 36l5 41h172h106h172l-5 -41q-4 -34 -45 -36q-4 0 -19 -0.5t-46 -1.5t-67 -2l-158 -1287q36 -1 66.5 -2t45.5 -1.5t19 -0.5q40 -2 36 -36l-5 -41h-172h-106h-172z M341 1579l258 211q16 13 29 17.5t37 4.5h115l-326 -221q-11 -7 -20 -9.5t-22 -2.5h-71z" />
<glyph unicode="&#xce;" horiz-adv-x="748" d="M34 0l5 41q4 34 45 36q5 0 19.5 0.5t45.5 1.5t67 2l158 1287q-36 1 -66.5 2t-45.5 1.5t-19 0.5q-40 2 -36 36l5 41h172h106h172l-5 -41q-4 -34 -45 -36q-4 0 -19 -0.5t-46 -1.5t-67 -2l-158 -1287q36 -1 66.5 -2t45.5 -1.5t19 -0.5q40 -2 36 -36l-5 -41h-172h-106h-172z M169 1579l265 204h93l215 -204h-75q-8 0 -17.5 2.5t-15.5 7.5l-144 126q-7 6 -11 9l-4 6q-2 -2 -6 -5.5t-13 -9.5l-176 -126q-8 -5 -17.5 -7.5t-17.5 -2.5h-76z" />
<glyph unicode="&#xcf;" horiz-adv-x="773" d="M34 0l5 41q4 34 45 36q5 0 19.5 0.5t45.5 1.5t67 2l158 1287q-36 1 -66.5 2t-45.5 1.5t-19 0.5q-40 2 -36 36l5 41h172h106h172l-5 -41q-4 -34 -45 -36q-4 0 -19 -0.5t-46 -1.5t-67 -2l-158 -1287q36 -1 66.5 -2t45.5 -1.5t19 -0.5q40 -2 36 -36l-5 -41h-172h-106h-172z M175 1705q2 16 10.5 31.5t21.5 27.5t28.5 18.5t32 6.5t31 -6.5t24 -18.5t15 -27.5t3.5 -31.5t-11 -31t-21.5 -26t-29 -17.5t-32.5 -6.5t-30 6.5t-24 17.5t-15 26t-3 31zM601 1705q4 34 31.5 59t61.5 25q16 0 30.5 -6.5t24.5 -18.5t15 -27.5t3 -31.5t-10.5 -31t-21.5 -26 t-29 -17.5t-32 -6.5q-17 0 -31 6.5t-24 17.5t-15 26t-3 31z" />
<glyph unicode="&#xd0;" horiz-adv-x="1562" d="M34 0q2 15 5 41q4 34 45 36q5 0 19.5 0.5t45.5 1.5t67 2l76 620h-221l8 66h221l74 601q-36 1 -66.5 2t-45.5 1.5t-19 0.5q-20 1 -29.5 9t-6.5 27l5 41h172h503q155 0 275.5 -50t200.5 -144.5t113.5 -228.5t12.5 -301q-21 -168 -87 -302t-169 -228.5t-236 -144.5t-288 -50 h-503h-172zM322 85h398q131 0 243.5 43t199 125t143 200.5t75.5 271.5q19 152 -8.5 270.5t-94 200.5t-168.5 125t-233 43h-398l-73 -597h414l-8 -66h-414z" />
<glyph unicode="&#xd1;" horiz-adv-x="1692" d="M34 0l5 41q4 34 45 36q5 0 19.5 0.5t45.5 1.5t67 2l158 1287q-36 1 -66.5 2t-45.5 1.5t-19 0.5q-40 2 -36 36l5 41h172h51q14 0 22 -3.5t16 -16.5l784 -1255q1 31 4 59l139 1135q-36 1 -67.5 2t-47.5 1.5t-21 0.5q-40 2 -36 36l5 41h177h92h173l-5 -41q-4 -34 -45 -36 q-4 0 -19.5 -0.5t-46 -1.5t-67.5 -2l-168 -1368h-50q-24 0 -35 21l-788 1257q-1 -31 -4 -58l-140 -1139q36 -1 68 -2l48 -1q16 -1 20 -1q40 -2 36 -36l-5 -41h-177h-91h-172zM742 1590q4 35 17.5 66t34.5 54t49.5 35.5t63 12.5t63.5 -16.5t55 -35t50.5 -35t52.5 -16.5 q43 0 69 28t33 72h55q-4 -36 -17 -66t-33.5 -53t-49 -36t-63.5 -13q-34 0 -62.5 16.5t-55 35.5t-51.5 35.5t-53 16.5q-43 0 -68.5 -29t-32.5 -72h-57z" />
<glyph unicode="&#xd2;" horiz-adv-x="1530" d="M76 725q20 167 88 303.5t171 233.5t236.5 150t285.5 53q155 0 275.5 -52.5t199.5 -150t112.5 -234t13.5 -303.5q-21 -168 -88 -304.5t-170 -233.5t-236.5 -149.5t-287.5 -52.5q-153 0 -273.5 52.5t-199.5 149.5t-113 233.5t-14 304.5zM184 725q-19 -153 9 -273t95 -204 t168.5 -128t230.5 -44q131 0 244 44t199.5 128t143 204t75.5 273q19 152 -8 272.5t-93 204.5t-168.5 128.5t-233.5 44.5q-129 0 -241.5 -44.5t-200 -128.5t-144.5 -204.5t-76 -272.5zM601 1812h116q25 0 36 -4.5t24 -17.5l207 -211h-73q-12 0 -20 2t-17 10z" />
<glyph unicode="&#xd3;" horiz-adv-x="1530" d="M76 725q20 167 88 303.5t171 233.5t236.5 150t285.5 53q155 0 275.5 -52.5t199.5 -150t112.5 -234t13.5 -303.5q-21 -168 -88 -304.5t-170 -233.5t-236.5 -149.5t-287.5 -52.5q-153 0 -273.5 52.5t-199.5 149.5t-113 233.5t-14 304.5zM184 725q-19 -153 9 -273t95 -204 t168.5 -128t230.5 -44q131 0 244 44t199.5 128t143 204t75.5 273q19 152 -8 272.5t-93 204.5t-168.5 128.5t-233.5 44.5q-129 0 -241.5 -44.5t-200 -128.5t-144.5 -204.5t-76 -272.5zM759 1579l258 211q16 13 29 17.5t37 4.5h115l-326 -221q-11 -7 -20 -9.5t-22 -2.5h-71z " />
<glyph unicode="&#xd4;" horiz-adv-x="1530" d="M76 725q20 167 88 303.5t171 233.5t236.5 150t285.5 53q155 0 275.5 -52.5t199.5 -150t112.5 -234t13.5 -303.5q-21 -168 -88 -304.5t-170 -233.5t-236.5 -149.5t-287.5 -52.5q-153 0 -273.5 52.5t-199.5 149.5t-113 233.5t-14 304.5zM184 725q-19 -153 9 -273t95 -204 t168.5 -128t230.5 -44q131 0 244 44t199.5 128t143 204t75.5 273q19 152 -8 272.5t-93 204.5t-168.5 128.5t-233.5 44.5q-129 0 -241.5 -44.5t-200 -128.5t-144.5 -204.5t-76 -272.5zM587 1579l265 204h93l215 -204h-75q-8 0 -17.5 2.5t-15.5 7.5l-144 126q-7 6 -11 9l-4 6 q-2 -2 -6 -5.5t-13 -9.5l-176 -126q-8 -5 -17.5 -7.5t-17.5 -2.5h-76z" />
<glyph unicode="&#xd5;" horiz-adv-x="1530" d="M76 725q20 167 88 303.5t171 233.5t236.5 150t285.5 53q155 0 275.5 -52.5t199.5 -150t112.5 -234t13.5 -303.5q-21 -168 -88 -304.5t-170 -233.5t-236.5 -149.5t-287.5 -52.5q-153 0 -273.5 52.5t-199.5 149.5t-113 233.5t-14 304.5zM184 725q-19 -153 9 -273t95 -204 t168.5 -128t230.5 -44q131 0 244 44t199.5 128t143 204t75.5 273q19 152 -8 272.5t-93 204.5t-168.5 128.5t-233.5 44.5q-129 0 -241.5 -44.5t-200 -128.5t-144.5 -204.5t-76 -272.5zM619 1590q4 35 17.5 66t35 54t49.5 35.5t63 12.5t63.5 -16.5t55 -35t51 -35t52.5 -16.5 q43 0 69 28t32 72h55q-4 -36 -17 -66t-33 -53t-49 -36t-64 -13q-34 0 -62.5 16.5t-54.5 35.5t-51.5 35.5t-52.5 16.5q-43 0 -68.5 -29t-33.5 -72h-57z" />
<glyph unicode="&#xd6;" horiz-adv-x="1530" d="M76 725q20 167 88 303.5t171 233.5t236.5 150t285.5 53q155 0 275.5 -52.5t199.5 -150t112.5 -234t13.5 -303.5q-21 -168 -88 -304.5t-170 -233.5t-236.5 -149.5t-287.5 -52.5q-153 0 -273.5 52.5t-199.5 149.5t-113 233.5t-14 304.5zM184 725q-19 -153 9 -273t95 -204 t168.5 -128t230.5 -44q131 0 244 44t199.5 128t143 204t75.5 273q19 152 -8 272.5t-93 204.5t-168.5 128.5t-233.5 44.5q-129 0 -241.5 -44.5t-200 -128.5t-144.5 -204.5t-76 -272.5zM593 1705q2 16 10.5 31.5t21.5 27.5t28.5 18.5t32 6.5t31 -6.5t24 -18.5t15 -27.5 t3.5 -31.5t-11 -31t-21.5 -26t-29 -17.5t-32.5 -6.5t-30 6.5t-24 17.5t-15 26t-3 31zM1019 1705q4 34 31.5 59t61.5 25q16 0 30.5 -6.5t24.5 -18.5t15 -27.5t3 -31.5t-10.5 -31t-21.5 -26t-29 -17.5t-32 -6.5q-17 0 -31 6.5t-24 17.5t-15 26t-3 31z" />
<glyph unicode="&#xd7;" horiz-adv-x="996" d="M17 303l429 383l-330 377l61 55l330 -378l421 376l48 -55l-422 -375l334 -381l-59 -53l-335 381l-430 -383z" />
<glyph unicode="&#xd8;" horiz-adv-x="1563" d="M36 -108l221 255q-99 98 -142 244.5t-20 333.5q20 167 87.5 303.5t171 233.5t237 150t285.5 53q124 0 226.5 -34t179.5 -99l132 153q14 16 24.5 23.5t30.5 7.5h56l-197 -228q91 -98 130.5 -240.5t17.5 -322.5q-21 -168 -87.5 -304.5t-169.5 -233.5t-236.5 -149.5 t-288.5 -52.5q-118 0 -216 31t-173 89l-157 -180q-15 -17 -32.5 -25t-34.5 -8h-45zM203 725q-20 -164 12.5 -289.5t109.5 -209.5l890 1029q-66 58 -153.5 89t-196.5 31q-129 0 -241.5 -44.5t-200 -128.5t-144.5 -204.5t-76 -272.5zM370 182q64 -52 148.5 -79t187.5 -27 q131 0 243.5 44t199.5 128t143.5 204t75.5 273q19 156 -10 277.5t-99 205.5z" />
<glyph unicode="&#xd9;" horiz-adv-x="1543" d="M78 1408l5 41h173h105h199l-6 -41q-4 -34 -45 -36q-4 0 -25.5 -0.5t-58.5 -1.5l-74 -2l-100 -814q-12 -101 7.5 -188.5t68.5 -152.5t126.5 -101.5t182 -36.5t191.5 36t152.5 100.5t106.5 152.5t53 189l100 815q-37 1 -73.5 2t-58 1.5t-25.5 0.5q-40 2 -36 36l5 41h198 h104h173l-5 -41q-4 -34 -45 -36q-5 0 -20 -0.5t-45.5 -1.5t-67.5 -2l-100 -815q-15 -120 -65.5 -224t-131 -181t-187.5 -121t-234 -44t-223.5 44t-158.5 121t-87 181t-10 224l100 815q-36 2 -66.5 2.5t-45.5 1t-20 0.5q-40 2 -36 36zM548 1812h116q25 0 36 -4.5t24 -17.5 l207 -211h-73q-12 0 -20 2t-17 10z" />
<glyph unicode="&#xda;" horiz-adv-x="1544" d="M79 1408l5 41h173h105h199l-5 -41q-4 -34 -46 -36q-4 0 -25.5 -0.5t-58.5 -1.5l-74 -2l-100 -814q-12 -101 7.5 -188.5t68.5 -152.5t126.5 -101.5t182 -36.5t191.5 36t152.5 100.5t106.5 152.5t53 189l100 815q-37 1 -73.5 2t-58 1.5t-25.5 0.5q-40 2 -36 36l5 41h198 h104h173l-5 -41q-4 -34 -45 -36q-5 0 -20 -0.5t-45.5 -1.5t-67.5 -2l-100 -815q-15 -120 -65.5 -224t-131 -181t-187.5 -121t-234 -44t-223.5 44t-158.5 121t-87 181t-10 224l100 815q-36 2 -66.5 2.5t-45.5 1t-20 0.5q-40 2 -36 36zM707 1579l258 211q16 13 29 17.5t38 4.5 h114l-326 -221q-11 -7 -20 -9.5t-21 -2.5h-72z" />
<glyph unicode="&#xdb;" horiz-adv-x="1543" d="M78 1408l5 41h173h105h199l-6 -41q-4 -34 -45 -36q-4 0 -25.5 -0.5t-58.5 -1.5l-74 -2l-100 -814q-12 -101 7.5 -188.5t68.5 -152.5t126.5 -101.5t182 -36.5t191.5 36t152.5 100.5t106.5 152.5t53 189l100 815q-37 1 -73.5 2t-58 1.5t-25.5 0.5q-40 2 -36 36l5 41h198 h104h173l-5 -41q-4 -34 -45 -36q-5 0 -20 -0.5t-45.5 -1.5t-67.5 -2l-100 -815q-15 -120 -65.5 -224t-131 -181t-187.5 -121t-234 -44t-223.5 44t-158.5 121t-87 181t-10 224l100 815q-36 2 -66.5 2.5t-45.5 1t-20 0.5q-40 2 -36 36zM534 1579l266 204h92l215 -204h-74 q-8 0 -17.5 2.5t-16.5 7.5l-144 126q-7 6 -10 9l-5 6q-2 -2 -6 -5.5t-13 -9.5l-176 -126q-8 -5 -17.5 -7.5t-17.5 -2.5h-76z" />
<glyph unicode="&#xdc;" horiz-adv-x="1543" d="M78 1408l5 41h173h105h199l-6 -41q-4 -34 -45 -36q-4 0 -25.5 -0.5t-58.5 -1.5l-74 -2l-100 -814q-12 -101 7.5 -188.5t68.5 -152.5t126.5 -101.5t182 -36.5t191.5 36t152.5 100.5t106.5 152.5t53 189l100 815q-37 1 -73.5 2t-58 1.5t-25.5 0.5q-40 2 -36 36l5 41h198 h104h173l-5 -41q-4 -34 -45 -36q-5 0 -20 -0.5t-45.5 -1.5t-67.5 -2l-100 -815q-15 -120 -65.5 -224t-131 -181t-187.5 -121t-234 -44t-223.5 44t-158.5 121t-87 181t-10 224l100 815q-36 2 -66.5 2.5t-45.5 1t-20 0.5q-40 2 -36 36zM540 1705q2 16 10.5 31.5t21.5 27.5 t28.5 18.5t32 6.5t31 -6.5t24 -18.5t15 -27.5t3.5 -31.5t-11 -31t-21.5 -26t-29 -17.5t-32.5 -6.5t-30 6.5t-24 17.5t-15 26t-3 31zM966 1705q4 34 32 59t61 25q16 0 30.5 -6.5t24.5 -18.5t15 -27.5t3 -31.5t-10.5 -31t-21.5 -26t-29 -17.5t-32 -6.5q-17 0 -31 6.5t-24 17.5 t-15 26t-3 31z" />
<glyph unicode="&#xdd;" horiz-adv-x="1392" d="M61 1408l5 41h65h11h80h16h206l-5 -41q-4 -34 -45 -36q-5 0 -16 -0.5t-36 -1.5t-55 -2l305 -610q12 -24 19 -46t13 -44q11 23 24 44.5t30 45.5l454 610q-31 1 -55.5 2t-35.5 1.5t-15 0.5q-40 2 -36 36l5 41h205h15h82h11h65l-5 -41q-4 -34 -45 -36q-52 -3 -76 -4 l-579 -770l-64 -517q36 -1 66.5 -2t45.5 -1.5t19 -0.5q40 -2 36 -36l-5 -41h-172h-105h-173l5 41q4 34 45 36q5 0 20 0.5t45.5 1.5t67.5 2l63 517l-390 770q-22 1 -75 4q-40 2 -36 36zM621 1579l258 211q16 13 29 17.5t38 4.5h114l-326 -221q-11 -7 -20 -9.5t-21 -2.5h-72z " />
<glyph unicode="&#xde;" horiz-adv-x="1102" d="M61 0l178 1449h105l-36 -291h269q255 0 371 -111.5t91 -318.5q-12 -95 -57 -175t-119 -138t-173 -90t-219 -32h-269l-36 -293h-105zM212 377h269q96 0 175.5 26.5t138 73.5t94.5 111t45 140q20 167 -71.5 256.5t-295.5 89.5h-269z" />
<glyph unicode="&#xdf;" horiz-adv-x="1072" d="M60 0l126 1025q13 103 57 185.5t111 139.5t154 87t185 30q87 0 151.5 -26t105.5 -67.5t58.5 -92.5t10.5 -102q-8 -63 -37.5 -110.5t-70.5 -84t-86.5 -65t-85.5 -56.5t-67.5 -58t-32.5 -68q-5 -37 9 -62t40 -43.5t59.5 -33.5t69 -32t68 -38t57 -52t36 -73.5t4.5 -102.5 q-9 -70 -41.5 -128t-84 -100t-118.5 -65t-146 -23q-103 0 -173.5 34t-124.5 90l27 34q6 8 13 12.5t18 4.5q13 0 30 -16.5t45.5 -35.5t72 -35.5t108.5 -16.5q60 0 109.5 18t85.5 49.5t58 73.5t28 90q8 69 -17 110t-66.5 67.5t-91.5 46t-92 45t-67.5 63.5t-17.5 103 q6 50 35 87t70.5 68.5t88 61.5t88.5 64.5t71.5 77t36.5 100.5q4 32 -5.5 69t-38 69.5t-78 54t-124.5 21.5q-73 0 -139.5 -22t-120 -67t-90 -115.5t-48.5 -166.5l-125 -1023h-98z" />
<glyph unicode="&#xe0;" horiz-adv-x="1018" d="M48 342q0 89 22.5 174.5t64 162.5t99 141.5t126.5 111.5t148 73.5t163 26.5q61 0 114.5 -10.5t105.5 -37.5l-110 -904q24 -1 46 -2q24 -1 33 -1h15q20 -1 29 -10t7 -26l-5 -41h-135h-24h-23q-19 0 -27 9.5t-8 22.5l34 320q-39 -82 -85.5 -149t-99.5 -115t-111 -74.5 t-121 -26.5q-64 0 -112.5 25t-80.5 71t-48.5 111.5t-16.5 147.5zM145 358q0 -137 47 -213.5t146 -76.5q58 0 115 32.5t108 92.5t96.5 144.5t81.5 186.5l52 415q-60 20 -132 21q-69 0 -133 -23t-121 -64t-104.5 -97.5t-82.5 -123.5t-54 -142t-19 -152zM395 1465h94 q25 0 36.5 -7t20.5 -25l130 -244h-55q-12 0 -20.5 3.5t-15.5 13.5z" />
<glyph unicode="&#xe1;" horiz-adv-x="1018" d="M48 342q0 89 22.5 174.5t64 162.5t99 141.5t126.5 111.5t148 73.5t163 26.5q61 0 114.5 -10.5t105.5 -37.5l-110 -904q24 -1 46 -2q24 -1 33 -1h15q20 -1 29 -10t7 -26l-5 -41h-135h-24h-23q-19 0 -27 9.5t-8 22.5l34 320q-39 -82 -85.5 -149t-99.5 -115t-111 -74.5 t-121 -26.5q-64 0 -112.5 25t-80.5 71t-48.5 111.5t-16.5 147.5zM145 358q0 -137 47 -213.5t146 -76.5q58 0 115 32.5t108 92.5t96.5 144.5t81.5 186.5l52 415q-60 20 -132 21q-69 0 -133 -23t-121 -64t-104.5 -97.5t-82.5 -123.5t-54 -142t-19 -152zM486 1189l191 244 q14 18 27 25t37 7h96l-253 -259q-9 -10 -18 -13.5t-22 -3.5h-58z" />
<glyph unicode="&#xe2;" horiz-adv-x="1017" d="M48 342q0 89 22.5 174.5t64 162.5t99 141.5t126.5 111.5t148 73.5t163 26.5q61 0 114.5 -10.5t105.5 -37.5l-110 -904q24 -1 46 -2q24 -1 33 -1h15q20 -1 29 -10t7 -26l-5 -41h-135h-24h-23q-19 0 -27 9.5t-8 22.5l34 320q-39 -82 -85.5 -149t-99.5 -115t-111 -74.5 t-121 -26.5q-64 0 -112.5 25t-80.5 71t-48.5 111.5t-16.5 147.5zM145 358q0 -137 47 -213.5t146 -76.5q58 0 115 32.5t108 92.5t96.5 144.5t81.5 186.5l52 415q-60 20 -132 21q-69 0 -133 -23t-121 -64t-104.5 -97.5t-82.5 -123.5t-54 -142t-19 -152zM308 1197l254 252h87 l191 -252h-66q-16 0 -26 12l-140 167q-6 4 -10 12q-3 -4 -6 -7l-5 -5l-181 -167q-6 -5 -13.5 -8.5t-16.5 -3.5h-68z" />
<glyph unicode="&#xe3;" horiz-adv-x="1022" d="M49 342q0 89 22.5 174.5t64 162.5t99 141.5t126.5 111.5t148 73.5t163 26.5q61 0 114.5 -10.5t105.5 -37.5l-110 -904q24 -1 46 -2q24 -1 33 -1h15q20 -1 29 -10t7 -26l-5 -41h-135h-24h-23q-19 0 -27 9.5t-8 22.5l34 320q-39 -82 -85.5 -149t-99.5 -115t-111 -74.5 t-121 -26.5q-64 0 -112.5 25t-80.5 71t-48.5 111.5t-16.5 147.5zM146 358q0 -137 47 -213.5t146 -76.5q58 0 115 32.5t108 92.5t96.5 144.5t81.5 186.5l52 415q-60 20 -132 21q-69 0 -133 -23t-121 -64t-104.5 -97.5t-82.5 -123.5t-54 -142t-19 -152zM322 1243q5 37 19 69.5 t36 56t51.5 36.5t64 13t63 -17t53 -36.5t48.5 -36.5t51 -17q44 0 70 28t33 76h60q-5 -37 -18.5 -69t-35 -55.5t-51 -37t-64.5 -13.5q-34 0 -62 17t-53 37t-49 37t-51 17q-43 0 -69 -29.5t-34 -75.5h-62z" />
<glyph unicode="&#xe4;" horiz-adv-x="1020" d="M49 342q0 89 22.5 174.5t64 162.5t99 141.5t126.5 111.5t148 73.5t163 26.5q61 0 114.5 -10.5t105.5 -37.5l-110 -904q24 -1 46 -2q24 -1 33 -1h15q20 -1 29 -10t7 -26l-5 -41h-135h-24h-23q-19 0 -27 9.5t-8 22.5l34 320q-39 -82 -85.5 -149t-99.5 -115t-111 -74.5 t-121 -26.5q-64 0 -112.5 25t-80.5 71t-48.5 111.5t-16.5 147.5zM146 358q0 -137 47 -213.5t146 -76.5q58 0 115 32.5t108 92.5t96.5 144.5t81.5 186.5l52 415q-60 20 -132 21q-69 0 -133 -23t-121 -64t-104.5 -97.5t-82.5 -123.5t-54 -142t-19 -152zM332 1315q2 17 11 32.5 t22 27t28.5 18.5t32 7t31.5 -7t25 -18.5t15 -27t3 -32.5q-2 -16 -11 -31t-21.5 -26.5t-29 -18t-33 -6.5t-30.5 6.5t-24.5 18t-15.5 26t-3 31.5zM683 1315q2 17 10.5 32.5t21.5 27t29 18.5t33 7q16 0 31.5 -7t25 -18.5t15 -27t3.5 -32.5q-2 -16 -11 -31t-22 -26.5t-29.5 -18 t-32.5 -6.5q-17 0 -31.5 6.5t-25 18t-15 26t-2.5 31.5z" />
<glyph unicode="&#xe5;" horiz-adv-x="1016" d="M47 342q0 89 22.5 174.5t64 162.5t99 141.5t126.5 111.5t148 73.5t163 26.5q61 0 114.5 -10.5t105.5 -37.5l-110 -904q24 -1 46 -2q24 -1 33 -1h15q20 -1 29 -10t7 -26l-5 -41h-135h-24h-23q-19 0 -27 9.5t-8 22.5l34 320q-39 -82 -85.5 -149t-99.5 -115t-111 -74.5 t-121 -26.5q-64 0 -112.5 25t-80.5 71t-48.5 111.5t-16.5 147.5zM144 358q0 -137 47 -213.5t146 -76.5q58 0 115 32.5t108 92.5t96.5 144.5t81.5 186.5l51 415q-60 20 -131 21q-69 0 -133 -23t-121 -64t-104.5 -97.5t-82.5 -123.5t-54 -142t-19 -152zM411.5 1333 q4.5 37 22 68t44.5 53t60.5 34.5t69.5 12.5t66.5 -12.5t52 -34.5t32 -53t6 -68t-22.5 -67t-44.5 -52.5t-60.5 -35t-70 -12.5t-66.5 12.5t-52 35t-31.5 52.5t-5.5 67zM471 1333q-6 -51 22.5 -83.5t80.5 -32.5q51 0 88 32.5t43.5 83.5t-22.5 84t-80 33q-52 0 -89 -33t-43 -84z " />
<glyph unicode="&#xe6;" horiz-adv-x="1469" d="M40 233q0 77 36 141t112.5 110.5t197.5 74.5t291 32l11 87q2 22 4 38q2 18 1 36q0 108 -47 164t-140 56q-68 0 -117.5 -20.5t-85.5 -44.5t-59.5 -44.5t-37.5 -20.5q-22 0 -29 18l-12 29q83 80 166.5 121t184.5 41q117 0 176.5 -61.5t70.5 -171.5q58 109 150.5 170.5 t215.5 61.5q56 0 104 -16.5t83 -47t54.5 -72t19.5 -90.5q0 -59 -32 -112.5t-105.5 -93t-195.5 -64.5t-301 -26q-3 -42 -3 -84q0 -176 71 -270.5t195 -94.5q54 0 97.5 11.5t78.5 30t61 39t46.5 39t35.5 30.5t26 12q12 0 21 -11l23 -26q-49 -52 -96 -90.5t-96.5 -63.5 t-102 -37t-112.5 -12q-119 0 -199 72t-110 209q-29 -79 -75.5 -133.5t-100.5 -87.5t-111 -48t-106 -15q-57 0 -105 14t-82 42.5t-53 73t-19 105.5zM132 247q0 -47 13.5 -81t38 -56t58 -32.5t73.5 -10.5q62 0 119.5 23t103 66.5t76 107t40.5 145.5l15 118q-141 -5 -242.5 -25 t-166.5 -55t-96.5 -85.5t-31.5 -114.5zM763 588q155 5 258 25t166 50.5t90 70.5t27 86q0 74 -50.5 115.5t-134.5 41.5q-73 0 -132 -27.5t-104.5 -78.5t-76 -123t-43.5 -160z" />
<glyph unicode="&#xe7;" horiz-adv-x="916" d="M61 510q14 117 56.5 213t110 165.5t157.5 108t201 38.5q36 0 105 -16t121 -32l52 -16l-32 -257h-50q-42 0 -38 50q0 4 1 25t2 57.5t4 77.5q-93 35 -169 34q-88 0 -160 -31t-126 -89.5t-88.5 -141.5t-47.5 -186q-13 -108 2 -190.5t54 -139.5t101 -86.5t142 -29.5 q74 0 125.5 17t86 37.5t56 38t32.5 17.5q13 0 19 -10l23 -33q-27 -31 -66.5 -57.5t-87 -46t-101.5 -30.5q-43 -8 -89 -10l-34 -80q89 -16 133 -47t36 -91q-4 -31 -20.5 -55.5t-43.5 -41.5t-63 -26.5t-77 -9.5q-42 0 -80.5 12t-62.5 31l13 29q8 12 18 12q5 0 13 -5.5t21 -12 t33 -12t50 -5.5q52 0 84 22.5t37 61.5q3 26 -8.5 42.5t-34.5 27.5t-56 18q-33 6 -71 11l52 120q-74 6 -135 34q-76 35 -125.5 102t-69.5 164.5t-5 221.5z" />
<glyph unicode="&#xe8;" horiz-adv-x="888" d="M49 387q0 77 15.5 155t45.5 149.5t74.5 134t102 108.5t127 72.5t150.5 26.5q75 0 126.5 -21t84 -52t47 -67.5t14.5 -68.5q0 -42 -11.5 -79.5t-40 -71.5t-78 -64t-126 -55.5t-183 -45.5t-250.5 -35q-2 -22 -3 -43t-1 -41q0 -153 69 -239q70 -86 209 -86q54 0 97.5 12 t78 30.5t60.5 38.5q26 21 46.5 39.5t35.5 30t27 11.5t21 -10l23 -27q-50 -53 -97.5 -91.5t-96.5 -63t-101 -36t-112 -11.5q-85 0 -151 28t-111 79.5t-68.5 126t-23.5 166.5zM159 541q130 14 224 33t159.5 40t106 45.5t63 50.5t30.5 54t8 57q0 21 -10 46.5t-32.5 46t-59 34.5 t-89.5 14q-82 0 -148 -35t-116.5 -93t-85 -134t-50.5 -159zM362 1465h94q25 0 36 -7t20 -25l131 -244h-55q-12 0 -20.5 3.5t-15.5 13.5z" />
<glyph unicode="&#xe9;" horiz-adv-x="889" d="M49 387q0 77 15.5 155t45.5 149.5t74.5 134t102 108.5t127 72.5t150.5 26.5q75 0 126.5 -21t84 -52t47 -67.5t14.5 -68.5q0 -42 -11.5 -79.5t-40 -71.5t-78 -64t-126 -55.5t-183 -45.5t-250.5 -35q-2 -22 -3 -43t-1 -41q0 -153 69 -239q70 -86 209 -86q54 0 97.5 12 t78 30.5t60.5 38.5q26 21 46.5 39.5t35.5 30t27 11.5t21 -10l23 -27q-50 -53 -97.5 -91.5t-96.5 -63t-101 -36t-112 -11.5q-85 0 -151 28t-111 79.5t-68.5 126t-23.5 166.5zM159 541q130 14 224 33t159.5 40t106 45.5t63 50.5t30.5 54t8 57q0 21 -10 46.5t-32.5 46t-59 34.5 t-89.5 14q-82 0 -148 -35t-116.5 -93t-85 -134t-50.5 -159zM452 1189l190 244q14 18 27 25t38 7h96l-253 -259q-9 -10 -18.5 -13.5t-21.5 -3.5h-58z" />
<glyph unicode="&#xea;" horiz-adv-x="888" d="M49 387q0 77 15.5 155t45.5 149.5t74.5 134t102 108.5t127 72.5t150.5 26.5q75 0 126.5 -21t84 -52t47 -67.5t14.5 -68.5q0 -42 -11.5 -79.5t-40 -71.5t-78 -64t-126 -55.5t-183 -45.5t-250.5 -35q-2 -22 -3 -43t-1 -41q0 -153 69 -239q70 -86 209 -86q54 0 97.5 12 t78 30.5t60.5 38.5q26 21 46.5 39.5t35.5 30t27 11.5t21 -10l23 -27q-50 -53 -97.5 -91.5t-96.5 -63t-101 -36t-112 -11.5q-85 0 -151 28t-111 79.5t-68.5 126t-23.5 166.5zM159 541q130 14 224 33t159.5 40t106 45.5t63 50.5t30.5 54t8 57q0 21 -10 46.5t-32.5 46t-59 34.5 t-89.5 14q-82 0 -148 -35t-116.5 -93t-85 -134t-50.5 -159zM274 1197l254 252h87l191 -252h-67q-16 0 -26 12l-139 167q-6 4 -10 12q-3 -4 -6 -7l-5 -5l-182 -167q-6 -5 -13.5 -8.5t-15.5 -3.5h-68z" />
<glyph unicode="&#xeb;" horiz-adv-x="894" d="M50 387q0 77 15.5 155t45.5 149.5t74.5 134t102 108.5t127 72.5t150.5 26.5q75 0 126.5 -21t84 -52t47 -67.5t14.5 -68.5q0 -42 -11.5 -79.5t-40 -71.5t-78 -64t-126 -55.5t-183 -45.5t-249.5 -35q-2 -22 -3.5 -43t-1.5 -41q0 -153 70 -239q69 -86 208 -86q54 0 97.5 12 t78 30.5t60.5 38.5q26 21 46.5 39.5t35.5 30t27 11.5t21 -10l23 -27q-50 -53 -97.5 -91.5t-96.5 -63t-101 -36t-112 -11.5q-85 0 -151 28t-111 79.5t-68.5 126t-23.5 166.5zM160 541q130 14 224 33t159.5 40t106 45.5t63 50.5t30.5 54t8 57q0 21 -10 46.5t-32.5 46t-59 34.5 t-89.5 14q-82 0 -148 -35t-116.5 -93t-85 -134t-50.5 -159zM298 1315q2 17 10.5 32.5t22 27t29 18.5t32 7t31.5 -7t25 -18.5t15 -27t3 -32.5q-2 -16 -11 -31t-21.5 -26.5t-29 -18t-33 -6.5t-30.5 6.5t-24.5 18t-15.5 26t-3 31.5zM648 1315q2 17 11 32.5t22 27t28.5 18.5 t33.5 7q16 0 31 -7t25 -18.5t15 -27t3 -32.5q-2 -16 -11 -31t-21.5 -26.5t-29 -18t-33.5 -6.5t-31 6.5t-24.5 18t-15.5 26t-3 31.5z" />
<glyph unicode="&#xec;" horiz-adv-x="443" d="M78 978l5 41h148h97l-115 -938q32 -1 50 -2q21 -1 31 -1q2 0 7.5 -0.5t7.5 -0.5h11q40 -2 36 -36l-5 -41h-148h-97l20 164l95 774l-50 2q-28 1 -30 1q-11 0 -16 1h-11q-40 2 -36 36zM127 1465h94q25 0 36.5 -7t20.5 -25l131 -244h-56q-12 0 -20 3.5t-15 13.5z" />
<glyph unicode="&#xed;" horiz-adv-x="572" d="M72 978l5 41h148h97l-115 -938q32 -1 50 -2q21 -1 31 -1q2 0 7.5 -0.5t7.5 -0.5h11q40 -2 36 -36l-5 -41h-148h-97l20 164l95 774l-50 2q-28 1 -31 1q-11 0 -15 1h-11q-40 2 -36 36zM209 1189l191 244q14 18 27 25t37 7h96l-253 -259q-9 -10 -18 -13.5t-22 -3.5h-58z" />
<glyph unicode="&#xee;" horiz-adv-x="595" d="M55 1197l254 252h87l192 -252h-67q-16 0 -26 12l-139 167q-6 4 -10 12q-3 -4 -6 -7t-6 -5l-181 -167q-6 -5 -13.5 -8.5t-15.5 -3.5h-69zM86 978l5 41h148h98l-116 -938q32 -1 50 -2q21 -1 31 -1q2 0 7.5 -0.5t7.5 -0.5h11q40 -2 36 -36l-5 -41h-148h-97l20 164l95 774 q-25 1 -49 2q-28 1 -31 1q-11 0 -16 1h-11q-40 2 -36 36z" />
<glyph unicode="&#xef;" horiz-adv-x="634" d="M102 1315q2 17 10.5 32.5t22 27t29 18.5t32 7t31.5 -7t24.5 -18.5t15 -27t3.5 -32.5q-2 -16 -11 -31t-21.5 -26.5t-29.5 -18t-33.5 -6.5t-30.5 6.5t-24 18t-15 26t-3 31.5zM103 978l5 41h148h97l-115 -938q32 -1 50 -2q21 -1 31 -1q2 0 7.5 -0.5t7.5 -0.5h11 q40 -2 36 -36l-5 -41h-148h-97l20 164l95 774l-50 2q-28 1 -30 1q-11 0 -16 1h-11q-40 2 -36 36zM452 1315q2 17 10.5 32.5t22 27t29 18.5t33.5 7q16 0 31 -7t25 -18.5t15 -27t3 -32.5q-2 -16 -11 -31t-21.5 -26.5t-29.5 -18t-33 -6.5q-17 0 -31 6.5t-24.5 18t-15.5 26 t-3 31.5z" />
<glyph unicode="&#xf0;" horiz-adv-x="1064" d="M50 466q12 98 52.5 185t105 152t152.5 102.5t193 37.5q54 0 107 -14t100.5 -43t86 -74t63.5 -106q7 185 -49.5 309t-159.5 200l-186 -148l-14 29q-6 8 -5 18t15 22l143 111q-57 34 -122.5 58t-139.5 40q-10 2 -17 9.5t-5 21.5q0 3 4 14t6 15l9 20q90 -14 176 -44.5 t160 -80.5l174 139l14 -30q4 -8 3 -16q-1 -11 -16 -24l-129 -102q59 -48 105 -110.5t75.5 -143.5t38.5 -180.5t-5 -219.5q-17 -141 -60.5 -256t-112 -197.5t-162 -127t-211.5 -44.5q-93 0 -170.5 33t-131 95t-77.5 150.5t-10 199.5zM147 466q-12 -95 7.5 -170t61.5 -126 t102.5 -78t131.5 -27q90 0 163 35t128.5 101t92.5 161.5t55 214.5q-9 52 -33 104t-64 93t-97 66.5t-135 25.5q-90 0 -162 -30.5t-124 -85t-84 -127.5t-43 -157z" />
<glyph unicode="&#xf1;" horiz-adv-x="1150" d="M73 978l5 41h148h53q27 0 28 -26l-10 -153q80 88 179.5 141.5t213.5 53.5q84 0 144.5 -26.5t96.5 -76.5t49 -121t2 -160l-70 -570q20 -1 49 -2q18 -1 31 -1q5 0 16 -1h11q40 -2 36 -36l-5 -41h-148h-98l80 651q18 143 -37.5 224.5t-190.5 81.5q-100 0 -192.5 -51.5 t-171.5 -141.5l-70 -572l-24 -192h-97l10 81l105 857q-30 1 -50 2q-21 1 -31 1h-15q-6 0 -11 1q-40 2 -36 36zM390 1243q5 37 19 69.5t36 56t51.5 36.5t64.5 13t63 -17t52.5 -36.5t48.5 -36.5t51 -17q44 0 70 28t33 76h60q-5 -37 -18.5 -69t-35 -55.5t-51 -37t-64.5 -13.5 q-34 0 -62 17t-53 37t-49 37t-51 17q-43 0 -69 -29.5t-34 -75.5h-62z" />
<glyph unicode="&#xf2;" horiz-adv-x="1062" d="M56.5 510q14.5 120 57.5 216.5t111.5 165.5t159.5 106t200.5 37t191.5 -37t133 -106t70.5 -165.5t5 -216.5t-58 -216t-111 -165t-158.5 -105.5t-200.5 -36.5t-191.5 36.5t-133.5 105.5t-71 165t-5 216zM157 325.5q13 -82.5 51.5 -141t102.5 -90t155.5 -31.5t163.5 31.5 t124.5 90t85 141t45.5 184.5q12 101 0 184t-50.5 142t-102.5 90.5t-155.5 31.5t-163.5 -31.5t-124.5 -90.5t-86 -142t-45.5 -184q-13 -102 0 -184.5zM429 1465h94q25 0 36 -7t20 -25l131 -244h-55q-12 0 -20.5 3.5t-15.5 13.5z" />
<glyph unicode="&#xf3;" horiz-adv-x="1062" d="M56.5 510q14.5 120 57.5 216.5t111.5 165.5t159.5 106t200.5 37t191.5 -37t133 -106t70.5 -165.5t5 -216.5t-58 -216t-111 -165t-158.5 -105.5t-200.5 -36.5t-191.5 36.5t-133.5 105.5t-71 165t-5 216zM157 325.5q13 -82.5 51.5 -141t102.5 -90t155.5 -31.5t163.5 31.5 t124.5 90t85 141t45.5 184.5q12 101 0 184t-50.5 142t-102.5 90.5t-155.5 31.5t-163.5 -31.5t-124.5 -90.5t-86 -142t-45.5 -184q-13 -102 0 -184.5zM519 1189l190 244q14 18 27 25t38 7h96l-253 -259q-9 -10 -18.5 -13.5t-21.5 -3.5h-58z" />
<glyph unicode="&#xf4;" horiz-adv-x="1062" d="M56.5 510q14.5 120 57.5 216.5t111.5 165.5t159.5 106t200.5 37t191.5 -37t133 -106t70.5 -165.5t5 -216.5t-58 -216t-111 -165t-158.5 -105.5t-200.5 -36.5t-191.5 36.5t-133.5 105.5t-71 165t-5 216zM157 325.5q13 -82.5 51.5 -141t102.5 -90t155.5 -31.5t163.5 31.5 t124.5 90t85 141t45.5 184.5q12 101 0 184t-50.5 142t-102.5 90.5t-155.5 31.5t-163.5 -31.5t-124.5 -90.5t-86 -142t-45.5 -184q-13 -102 0 -184.5zM341 1197l254 252h87l191 -252h-67q-16 0 -26 12l-139 167q-6 4 -10 12q-3 -4 -6 -7l-5 -5l-182 -167q-6 -5 -13.5 -8.5 t-15.5 -3.5h-68z" />
<glyph unicode="&#xf5;" horiz-adv-x="1065" d="M57.5 510q14.5 120 57.5 216.5t111.5 165.5t159.5 106t201 37t191.5 -37t132.5 -106t70.5 -165.5t5 -216.5t-58 -216t-111 -165t-158.5 -105.5t-200.5 -36.5t-191.5 36.5t-133.5 105.5t-71 165t-5 216zM158 325.5q13 -82.5 51.5 -141t102.5 -90t155.5 -31.5t163.5 31.5 t124.5 90t85 141t45.5 184.5q12 101 0 184t-50.5 142t-102.5 90.5t-155.5 31.5t-163.5 -31.5t-124.5 -90.5t-86 -142t-45.5 -184q-13 -102 0 -184.5zM353 1243q5 37 19 69.5t36.5 56t52 36.5t64 13t62.5 -17t53 -36.5t49 -36.5t51 -17q44 0 70 28t32 76h61q-5 -37 -18.5 -69 t-35.5 -55.5t-51 -37t-64 -13.5q-34 0 -62 17t-53.5 37t-49.5 37t-50 17q-43 0 -69 -29.5t-34 -75.5h-63z" />
<glyph unicode="&#xf6;" horiz-adv-x="1065" d="M57.5 510q14.5 120 57.5 216.5t111.5 165.5t159.5 106t201 37t191.5 -37t132.5 -106t70.5 -165.5t5 -216.5t-58 -216t-111 -165t-158.5 -105.5t-200.5 -36.5t-191.5 36.5t-133.5 105.5t-71 165t-5 216zM158 325.5q13 -82.5 51.5 -141t102.5 -90t155.5 -31.5t163.5 31.5 t124.5 90t85 141t45.5 184.5q12 101 0 184t-50.5 142t-102.5 90.5t-155.5 31.5t-163.5 -31.5t-124.5 -90.5t-86 -142t-45.5 -184q-13 -102 0 -184.5zM363 1315q2 17 10.5 32.5t22 27t29 18.5t32 7t31.5 -7t25 -18.5t15 -27t3 -32.5q-2 -16 -11 -31t-21.5 -26.5t-29.5 -18 t-33 -6.5t-30 6.5t-24.5 18t-15.5 26t-3 31.5zM713 1315q2 17 11 32.5t22 27t28.5 18.5t33.5 7q16 0 31 -7t25 -18.5t15 -27t3 -32.5q-2 -16 -11 -31t-21.5 -26.5t-29 -18t-33.5 -6.5t-31 6.5t-24.5 18t-15.5 26t-3 31.5z" />
<glyph unicode="&#xf7;" horiz-adv-x="1077" d="M56 649l9 75h962l-9 -75h-962zM402 320.5q5 39.5 35.5 68t70.5 28.5q19 0 35.5 -8t28 -20.5t17 -30.5t2.5 -37q-3 -20 -12.5 -37.5t-23.5 -30t-32.5 -20t-37.5 -7.5q-40 0 -64 27.5t-19 67zM491.5 1050q4.5 40 35.5 68t71 28q19 0 35.5 -8t27.5 -20.5t16.5 -30.5t3.5 -37 q-3 -20 -12.5 -37.5t-24 -30t-32.5 -20t-38 -7.5q-40 0 -63.5 27.5t-19 67.5z" />
<glyph unicode="&#xf8;" horiz-adv-x="1144" d="M26 -77l161 186q-61 69 -84.5 170t-7.5 231q15 120 58 216.5t111 165.5t159 106t201 37q90 0 160 -25t121 -71l104 119q13 15 23.5 22t30.5 7h51l-168 -193q53 -69 72.5 -166t4.5 -218q-15 -120 -57.5 -216t-110.5 -165t-159 -105.5t-201 -36.5q-165 0 -265 81l-97 -112 q-15 -17 -33 -25t-35 -8h-39zM190 510q-13 -106 0.5 -190t55.5 -143l602 695q-41 43 -98.5 66t-134.5 23q-91 0 -164.5 -32.5t-127 -91.5t-87.5 -142.5t-46 -184.5zM286 132q80 -71 218 -71q91 0 164.5 32t126.5 90.5t87 141.5t46 185q24 196 -43 313z" />
<glyph unicode="&#xf9;" horiz-adv-x="1146" d="M61 978l5 41h148h97l-80 -651q-18 -143 38 -225t191 -82q100 0 192 51t172 141l84 685q-27 1 -49 2t-31 1t-15.5 0.5t-10.5 0.5q-40 2 -36 36l5 41h147h98l-116 -938q28 -1 50 -2t31 -1t15.5 -0.5t10.5 -0.5q40 -2 36 -36l-5 -41h-148h-53q-28 0 -26 27l9 151 q-82 -88 -181 -141t-213 -53q-85 0 -145.5 26.5t-96 76.5t-48.5 121t-2 160l70 570q-28 1 -50 2t-31 1t-15.5 0.5t-10.5 0.5q-40 2 -36 36zM465 1465h94q25 0 36.5 -7t20.5 -25l131 -244h-56q-12 0 -20 3.5t-15 13.5z" />
<glyph unicode="&#xfa;" horiz-adv-x="1146" d="M61 978l5 41h148h97l-80 -651q-18 -143 38 -225t191 -82q100 0 192 51t172 141l84 685q-27 1 -49 2t-31 1t-15.5 0.5t-10.5 0.5q-40 2 -36 36l5 41h147h98l-116 -938q28 -1 50 -2t31 -1t15.5 -0.5t10.5 -0.5q40 -2 36 -36l-5 -41h-148h-53q-28 0 -26 27l9 151 q-82 -88 -181 -141t-213 -53q-85 0 -145.5 26.5t-96 76.5t-48.5 121t-2 160l70 570q-28 1 -50 2t-31 1t-15.5 0.5t-10.5 0.5q-40 2 -36 36zM555 1189l191 244q14 18 27 25t37 7h97l-253 -259q-9 -10 -18.5 -13.5t-22.5 -3.5h-58z" />
<glyph unicode="&#xfb;" horiz-adv-x="1146" d="M61 978l5 41h148h97l-80 -651q-18 -143 38 -225t191 -82q100 0 192 51t172 141l84 685q-27 1 -49 2t-31 1t-15.5 0.5t-10.5 0.5q-40 2 -36 36l5 41h147h98l-116 -938q28 -1 50 -2t31 -1t15.5 -0.5t10.5 -0.5q40 -2 36 -36l-5 -41h-148h-53q-28 0 -26 27l9 151 q-82 -88 -181 -141t-213 -53q-85 0 -145.5 26.5t-96 76.5t-48.5 121t-2 160l70 570q-28 1 -50 2t-31 1t-15.5 0.5t-10.5 0.5q-40 2 -36 36zM377 1197l254 252h87l191 -252h-66q-16 0 -26 12l-140 167q-6 4 -9 12q-3 -4 -6.5 -7t-5.5 -5l-181 -167q-6 -5 -13.5 -8.5 t-15.5 -3.5h-69z" />
<glyph unicode="&#xfc;" horiz-adv-x="1147" d="M61 978l5 41h148h97l-80 -651q-18 -143 38 -225t191 -82q100 0 192 51t172 141l84 685q-27 1 -49 2t-31 1t-15.5 0.5t-10.5 0.5q-40 2 -36 36l5 41h147h98l-116 -938q28 -1 50 -2t31 -1t15.5 -0.5t10.5 -0.5q40 -2 36 -36l-5 -41h-148h-53q-28 0 -26 27l9 151 q-82 -88 -181 -141t-213 -53q-85 0 -145.5 26.5t-96 76.5t-48.5 121t-2 160l70 570q-28 1 -50 2t-31 1t-15.5 0.5t-10.5 0.5q-40 2 -36 36zM399 1315q2 17 10.5 32.5t21.5 27t29 18.5t32 7t31 -7t25 -18.5t15 -27t3 -32.5q-2 -16 -10.5 -31t-21.5 -26.5t-29.5 -18t-33 -6.5 t-30.5 6.5t-24.5 18t-15 26t-2.5 31.5zM749 1315q2 17 10.5 32.5t21.5 27t29 18.5t33 7q16 0 31.5 -7t25 -18.5t15 -27t3.5 -32.5q-2 -16 -11 -31t-22 -26.5t-29.5 -18t-32.5 -6.5q-17 0 -31.5 6.5t-25 18t-15 26t-2.5 31.5z" />
<glyph unicode="&#xfd;" horiz-adv-x="1181" d="M53 978l5 41h68h81h207l-5 -41q-4 -34 -45 -36q-6 0 -13 -0.5t-32.5 -1.5t-60.5 -2l228 -736q4 -15 7 -32q3 -16 5 -32q7 16 15 32q7 16 15 32l405 736q-27 1 -49 2t-30.5 1t-14.5 0.5t-11 0.5q-40 2 -36 36l5 41h205h75h77l-5 -41q-4 -34 -45 -36q-5 0 -10.5 -0.5 t-23 -1t-37.5 -1.5l-707 -1267q-8 -14 -19 -23t-29 -9h-70l228 398l-285 901q-61 2 -62 3q-40 2 -36 36zM561 1189l191 244q14 18 27 25t37 7h97l-253 -259q-9 -10 -18.5 -13.5t-21.5 -3.5h-59z" />
<glyph unicode="&#xfe;" horiz-adv-x="1067" d="M28 -360l227 1850h97l-80 -650q79 90 174.5 142.5t207.5 52.5q188 0 276.5 -129.5t56.5 -389.5q-14 -112 -55 -208.5t-106 -167.5t-152.5 -112t-194.5 -41q-104 0 -175 40t-117 117l-62 -504h-97zM197 223q48 -88 114.5 -124t157.5 -36q90 0 161.5 33t124.5 93 t86.5 143.5t45.5 183.5q28 227 -42.5 334t-228.5 107q-101 0 -190 -52.5t-164 -146.5z" />
<glyph unicode="&#xff;" horiz-adv-x="1183" d="M54 978l5 41h68h81h208l-6 -41q-4 -34 -45 -36q-6 0 -13 -0.5t-32.5 -1.5t-60.5 -2l228 -736q4 -15 7 -32q3 -16 5 -32q7 16 15 32q7 16 15 32l405 736q-27 1 -49 2t-30.5 1t-14.5 0.5t-11 0.5q-40 2 -36 36l5 41h205h75h77l-5 -41q-4 -34 -45 -36q-5 0 -10.5 -0.5 t-23 -1t-37.5 -1.5l-707 -1267q-8 -14 -19 -23t-29 -9h-70l228 398l-285 901q-61 2 -62 3q-40 2 -36 36zM406 1315q2 17 10.5 32.5t21.5 27t29 18.5t32.5 7t31.5 -7t24.5 -18.5t15 -27t3.5 -32.5q-2 -16 -11 -31t-22 -26.5t-29.5 -18t-33 -6.5t-30.5 6.5t-24.5 18t-15 26 t-2.5 31.5zM756 1315q2 17 10.5 32.5t22 27t29 18.5t32.5 7q16 0 31.5 -7t25 -18.5t15 -27t3.5 -32.5q-2 -16 -11 -31t-21.5 -26.5t-29.5 -18t-33 -6.5q-17 0 -31.5 6.5t-24.5 18t-15 26t-3 31.5z" />
<glyph unicode="&#x152;" horiz-adv-x="2214" d="M77 725q20 167 82.5 303.5t156.5 233.5t214.5 150t259.5 53q95 0 175.5 -24.5t144.5 -70.5t110.5 -112t74.5 -150l41 341h858l-11 -87l-26 -213h-50q-23 0 -31.5 12.5t-6.5 37.5q2 30 12 163h-661l-72 -586h577l-11 -85h-576l-75 -604h661q6 34 13 73t11 62.5t4 27.5 q9 50 51 50h49l-26 -213l-10 -87h-857l42 342q-48 -84 -111 -150t-138.5 -111.5t-162 -69.5t-181.5 -24q-138 0 -246 52t-178 149t-98.5 233t-8.5 304zM185 725q-19 -153 4.5 -273.5t82.5 -204t150.5 -128t208.5 -44.5q118 0 220 44.5t181.5 128t132.5 204t71 273.5 q19 151 -4 272t-82 205.5t-150 129.5t-209 45q-117 0 -219.5 -45t-182 -129.5t-133 -205t-71.5 -272.5z" />
<glyph unicode="&#x153;" horiz-adv-x="1587" d="M55 346q0 165 39.5 293t108.5 216t162.5 134t200.5 46q123 0 197.5 -70t97.5 -190q59 121 159.5 190.5t233.5 69.5q62 0 112 -16.5t85 -45.5t53 -69.5t18 -89.5q0 -38 -11.5 -74t-40 -68.5t-76.5 -61t-121.5 -53.5t-174.5 -44.5t-236 -34.5q-1 -12 -1 -24v-24 q0 -176 71.5 -270.5t194.5 -94.5q54 0 98 11.5t78.5 30t60.5 39t47 38.5q20 18 35 30q14 12 26 12t22 -10l23 -27q-49 -52 -96.5 -90.5t-96.5 -63.5t-102 -36.5t-112 -11.5q-124 0 -205.5 78t-107.5 225q-32 -71 -75.5 -127.5t-97.5 -95t-118.5 -59.5t-136.5 -21 q-81 0 -140.5 29.5t-98 79t-57 114.5t-18.5 136zM151 352q0 -55 12.5 -107.5t41 -93t74.5 -65.5t113 -25q73 0 131.5 26t103 70t76 102.5t52 124.5t30 135t9.5 133q0 69 -14.5 126t-44 97t-74.5 62t-105 22q-92 0 -167 -43t-128 -121.5t-81.5 -190.5t-28.5 -252zM867 541 q178 20 290.5 50t175.5 65t86 75t23 80q0 31 -12 58.5t-36.5 48.5t-62.5 33.5t-90 12.5q-74 0 -137 -30t-111.5 -84.5t-80.5 -133t-45 -175.5z" />
<glyph unicode="&#x178;" horiz-adv-x="1392" d="M61 1408l5 41h65h11h80h16h206l-5 -41q-4 -34 -45 -36q-5 0 -16 -0.5t-36 -1.5t-55 -2l305 -610q12 -24 19 -46t13 -44q11 23 24 44.5t30 45.5l454 610q-31 1 -55.5 2t-35.5 1.5t-15 0.5q-40 2 -36 36l5 41h205h15h82h11h65l-5 -41q-4 -34 -45 -36q-52 -3 -76 -4 l-579 -770l-64 -517q36 -1 66.5 -2t45.5 -1.5t19 -0.5q40 -2 36 -36l-5 -41h-172h-105h-173l5 41q4 34 45 36q5 0 20 0.5t45.5 1.5t67.5 2l63 517l-390 770q-22 1 -75 4q-40 2 -36 36zM455 1705q2 16 10.5 31.5t21.5 27.5t28.5 18.5t32 6.5t31 -6.5t24.5 -18.5t15 -27.5 t3 -31.5t-11 -31t-21.5 -26t-28.5 -17.5t-32.5 -6.5t-30.5 6.5t-24 17.5t-15 26t-3 31zM881 1705q4 34 32 59t62 25q16 0 30 -6.5t24.5 -18.5t15 -27.5t2.5 -31.5t-10.5 -31t-21.5 -26t-28.5 -17.5t-32.5 -6.5t-31 6.5t-24 17.5t-15 26t-3 31z" />
<glyph unicode="&#x2c6;" horiz-adv-x="747" d="M113 1197l254 252h87l191 -252h-66q-16 0 -27 12l-139 167q-6 4 -10 12q-3 -4 -6 -7l-5 -5l-182 -167q-6 -5 -13.5 -8.5t-15.5 -3.5h-68z" />
<glyph unicode="&#x2dc;" horiz-adv-x="793" d="M135 1243q5 37 19 69.5t36.5 56t51.5 36.5t64 13t63 -17t53 -36.5t48.5 -36.5t50.5 -17q44 0 70 28t33 76h61q-5 -37 -18.5 -69t-35.5 -55.5t-51 -37t-64 -13.5q-34 0 -62 17t-53.5 37t-49.5 37t-50 17q-43 0 -69.5 -29.5t-33.5 -75.5h-63z" />
<glyph unicode="&#x2000;" horiz-adv-x="916" />
<glyph unicode="&#x2001;" horiz-adv-x="1832" />
<glyph unicode="&#x2002;" horiz-adv-x="916" />
<glyph unicode="&#x2003;" horiz-adv-x="1832" />
<glyph unicode="&#x2004;" horiz-adv-x="610" />
<glyph unicode="&#x2005;" horiz-adv-x="458" />
<glyph unicode="&#x2006;" horiz-adv-x="305" />
<glyph unicode="&#x2007;" horiz-adv-x="305" />
<glyph unicode="&#x2008;" horiz-adv-x="229" />
<glyph unicode="&#x2009;" horiz-adv-x="366" />
<glyph unicode="&#x200a;" horiz-adv-x="101" />
<glyph unicode="&#x2010;" horiz-adv-x="743" d="M131 566l10 83h476l-10 -83h-476z" />
<glyph unicode="&#x2011;" horiz-adv-x="743" d="M131 566l10 83h476l-10 -83h-476z" />
<glyph unicode="&#x2012;" horiz-adv-x="743" d="M131 566l10 83h476l-10 -83h-476z" />
<glyph unicode="&#x2013;" horiz-adv-x="1067" d="M129 556l9 73h806l-9 -73h-806z" />
<glyph unicode="&#x2014;" horiz-adv-x="1589" d="M129 556l9 73h1328l-9 -73h-1328z" />
<glyph unicode="&#x2018;" horiz-adv-x="421" d="M132 1237q10 80 58 153.5t118 134.5l25 -19q7 -6 7 -14q-1 -7 -8 -13q-45 -52 -77 -103.5t-39 -106.5q-7 -60 21 -123q4 -8 3 -17q-2 -14 -18 -20l-67 -27q-17 39 -22.5 77.5t-0.5 77.5z" />
<glyph unicode="&#x2019;" horiz-adv-x="416" d="M107 1103q1 8 8 14q45 51 77 103t38 107q7 59 -20 122q-4 8 -4 16q2 14 18 21l66 26q18 -39 23.5 -77t0.5 -77q-10 -80 -58 -154t-118 -134l-26 19q-6 6 -5 14z" />
<glyph unicode="&#x201a;" horiz-adv-x="452" d="M99.5 -229.5q0.5 8.5 7.5 14.5q45 51 77 103t39 107q7 59 -21 122q-4 8 -3 16q2 14 18 21l66 26q18 -39 23.5 -77t0.5 -77q-10 -80 -58 -154t-118 -134l-26 18q-6 6 -5.5 14.5z" />
<glyph unicode="&#x201c;" horiz-adv-x="697" d="M132 1237q10 80 58 153.5t118 134.5l25 -19q7 -6 7 -14q-1 -7 -8 -13q-45 -52 -77 -103.5t-39 -106.5q-7 -60 21 -123q4 -8 3 -17q-2 -14 -18 -20l-67 -27q-17 39 -22.5 77.5t-0.5 77.5zM408 1237q10 80 57.5 153.5t117.5 134.5l26 -19q7 -6 6 -14q-1 -7 -8 -13 q-45 -52 -77 -103.5t-39 -106.5q-7 -60 21 -123q4 -8 3 -17q-2 -14 -18 -20l-66 -27q-17 39 -22.5 77.5t-0.5 77.5z" />
<glyph unicode="&#x201d;" horiz-adv-x="692" d="M107 1103q1 8 8 14q45 51 77 103t38 107q7 59 -20 122q-4 8 -4 16q2 14 18 21l66 26q18 -39 23.5 -77t0.5 -77q-10 -80 -58 -154t-118 -134l-26 19q-6 6 -5 14zM382 1103q1 8 8 14q45 51 77 103t39 107q7 59 -21 122q-4 8 -3 16q2 14 18 21l66 26q18 -39 23 -77t1 -77 q-10 -80 -58 -154t-118 -134l-27 19q-6 6 -5 14z" />
<glyph unicode="&#x201e;" horiz-adv-x="728" d="M99.5 -229.5q0.5 8.5 7.5 14.5q45 51 77 103t39 107q7 59 -21 122q-4 8 -3 16q2 14 18 21l66 26q18 -39 23.5 -77t0.5 -77q-10 -80 -58 -154t-118 -134l-26 18q-6 6 -5.5 14.5zM375 -229.5q1 8.5 8 14.5q45 51 77 103t39 107q7 59 -21 122q-4 8 -3 16q2 14 18 21l65 26 q18 -39 23.5 -77t0.5 -77q-10 -80 -57.5 -154t-117.5 -134l-27 18q-6 6 -5 14.5z" />
<glyph unicode="&#x2022;" horiz-adv-x="832" d="M116 610q8 62 38 117.5t76 97t103.5 65t118.5 23.5q62 0 114.5 -23.5t88.5 -65t53 -96.5t9 -118q-8 -61 -38 -115t-76 -95t-104 -64.5t-121 -23.5q-61 0 -112.5 23.5t-87.5 64.5t-53 95t-9 115z" />
<glyph unicode="&#x2026;" horiz-adv-x="1455" d="M118 79q2 19 11.5 36.5t23.5 30.5t32 20.5t38 7.5q19 0 36 -7.5t28 -20.5t16.5 -30.5t3.5 -36.5q-3 -20 -12.5 -37t-24 -30t-32.5 -20t-38 -7q-40 0 -63.5 27t-18.5 67zM619 79q2 19 11.5 36.5t24 30.5t32.5 20.5t38 7.5q19 0 36 -7.5t28 -20.5t16.5 -30.5t3.5 -36.5 q-3 -20 -12.5 -37t-24 -30t-33 -20t-37.5 -7q-40 0 -64 27t-19 67zM1122 79q2 19 11.5 36.5t24 30.5t32.5 20.5t38 7.5q19 0 35.5 -7.5t28 -20.5t17 -30.5t3.5 -36.5q-3 -20 -12.5 -37t-24 -30t-33 -20t-37.5 -7q-40 0 -64 27t-19 67z" />
<glyph unicode="&#x202f;" horiz-adv-x="366" />
<glyph unicode="&#x2039;" horiz-adv-x="508" d="M88 525l2 14l294 387l29 -16q15 -10 13 -25q-2 -12 -10 -24l-224 -300q-16 -20 -26 -30q9 -8 19 -28l150 -301q6 -11 4 -24q-2 -15 -19 -25l-33 -16z" />
<glyph unicode="&#x203a;" horiz-adv-x="509" d="M80 179q1 11 10 23l224 301q8 11 14.5 17.5t11.5 10.5q-4 5 -9 12t-9 18l-151 300q-6 11 -4 24q2 16 20 25l33 16l199 -387l-1 -14l-295 -388l-29 16q-16 9 -14 26z" />
<glyph unicode="&#x205f;" horiz-adv-x="458" />
<glyph unicode="&#x20ac;" horiz-adv-x="1306" d="M60 583l8 60h161q1 21 3 40.5t5 41.5q6 50 15 99h-162l7 60h168q33 135 92.5 242.5t139.5 182t178 114.5t210 40q66 0 120.5 -11.5t99 -34t82 -56t70.5 -77.5l-37 -36q-5 -5 -10 -8.5t-13.5 -3.5t-18.5 10.5t-25.5 26t-38 34.5t-55 34.5t-77 26t-103.5 10.5 q-92 0 -173 -32t-146.5 -94.5t-114.5 -154.5t-79 -213h616l-4 -31q-1 -11 -10 -20t-26 -9h-590q-9 -48 -15 -99q-3 -21 -5 -41t-3 -41h529l-3 -31q-2 -12 -11 -20.5t-25 -8.5h-492q-2 -127 22.5 -223.5t74 -161t122.5 -97t165 -32.5q63 0 113.5 12t89.5 31t68.5 41t50 41 t35 31.5t23.5 12.5q10 0 19 -10l33 -35q-43 -47 -90.5 -85.5t-103 -66t-119 -42t-134.5 -14.5q-116 0 -205.5 40t-149 116.5t-89 187.5t-26.5 254h-166z" />
<glyph unicode="&#x2122;" horiz-adv-x="1438" d="M98 1389l8 60h482l-7 -60h-204l-65 -529h-73l65 529h-206zM644 860l72 589h58q10 0 14.5 -2t11.5 -10l176 -373l8 -30q7 16 17 30l263 373q6 8 11 10t15 2h59l-72 -589h-64l56 454l10 45l-272 -389q-10 -16 -27 -17h-11q-17 0 -24 17l-181 387v-43l-56 -454h-64z" />
<glyph unicode="&#xe000;" horiz-adv-x="1020" d="M0 1020h1020v-1020h-1020v1020z" />
<glyph unicode="&#xfb01;" horiz-adv-x="1294" d="M8 -331q0 33 37 33q52 1 101.5 17t89 51.5t68 93t38.5 141.5l111 907l-142 10q-29 2 -27 25l5 40h173l11 87q12 94 48.5 170t96 128.5t138.5 81t177 28.5q188 0 282 -111l2 -2l2 -2v-1q9 -12 14 -26q6 -17 3.5 -35t-12 -34t-23.5 -28.5t-31 -19.5t-35.5 -7t-34 7 t-26.5 19.5t-16 28.5t-3 34.5t12 34.5q7 13 16 23q-95 57 -228 36q-99 -18 -168 -75q-98 -83 -119 -253l-10 -84h597l-112 -906q36 -1 67 -2q28 -1 45 -1q16 0 20 -1q20 -1 29 -10t7 -26l-5 -41h-173h-97l10 81l102 833h-497l-112 -912q-12 -100 -47 -172t-90 -119 t-129.5 -69t-164.5 -22v49z" />
<glyph unicode="&#xfb02;" horiz-adv-x="1403" d="M8 -331q0 33 37 33q52 1 101.5 17t89 51.5t68 93t38.5 141.5l111 906l-142 9q-29 2 -27 26l5 40h173l8 67q11 90 47.5 167.5t94.5 134t138 88.5q81 32 178 31q35 0 72.5 -2t71.5 -6q35 -3 65 -5t52 -2h74l-151 -1230q-10 -82 24 -127t117 -45q26 0 41 4q16 4 24 4 q13 0 13 -12l-1 -49q-24 -11 -48.5 -16t-53.5 -5q-61 0 -105 19q-20 9 -37 20q-19 14 -32 32q-27 33 -36 78t-4 96l143 1161q-55 2 -115 8q-61 4 -109 4q-77 0 -140 -25q-63 -24 -111 -69q-46 -45 -77 -110q-29 -64 -39 -144l-9 -67h294l-9 -75h-292l-111 -909 q-12 -100 -47 -172t-90 -119t-129.5 -69t-164.5 -22v49z" />
<glyph unicode="&#xfb03;" horiz-adv-x="2394" d="M2015 978l5 41h148h97l-115 -938q32 -1 50 -2q21 -1 31 -1q2 0 7.5 -0.5t7.5 -0.5h11q40 -2 36 -36l-5 -41h-148h-97l20 164l95 774l-50 2q-28 1 -31 1q-11 0 -15 1h-11q-36 2 -36 30v6zM2170 1370q2 18 11.5 35t23.5 29.5t31 19.5t35.5 7t34 -7t26 -19.5t16.5 -28.5 q4 -12 4 -25v-11q-2 -18 -12 -34t-24 -28.5t-31 -19.5t-35.5 -7t-34 7t-26.5 19.5t-16 28.5q-4 11 -4 24q0 5 1 10zM979 -331q0 33 37 33q52 1 101.5 17t89 51.5t68 93t38.5 141.5l111 907l-142 10q-29 2 -27 25l5 40h173l16 129q11 87 41.5 153t77 110t107 66t129.5 22 q32 0 63.5 -5.5t55.5 -15.5l-9 -47q-3 -14 -21 -15q-12 0 -33 3.5t-52 3.5q-50 0 -94 -15t-79 -48t-58.5 -85.5t-32.5 -129.5l-16 -126h331l-9 -73h-328l-112 -912q-12 -100 -47 -172t-90 -119t-129.5 -69t-164.5 -22v49zM8 -331q0 33 37 33q52 1 101.5 17t89 51.5t68 93 t38.5 141.5l111 907l-142 10q-29 2 -27 25l5 40h173l16 129q11 87 41.5 153t77 110t107 66t129.5 22q32 0 63.5 -5.5t55.5 -15.5l-9 -47q-3 -14 -21 -15q-12 0 -33 3.5t-52 3.5q-50 0 -94 -15t-79 -48t-58.5 -85.5t-32.5 -129.5l-16 -126h331l-9 -73h-328l-112 -912 q-12 -100 -47 -172t-90 -119t-129.5 -69t-164.5 -22v49z" />
<glyph unicode="&#xfb04;" horiz-adv-x="2365" d="M2019 0l10 81l163 1328q-27 1 -50 2q-22 1 -31 1q-12 0 -15 1h-11q-40 2 -36 36l5 41h148h97l-173 -1409q18 -1 50 -2q18 -1 31 -1q11 0 15 -1h11q40 -2 36 -36l-5 -41h-148h-97zM979 -331q0 33 37 33q52 1 101.5 17t89 51.5t68 93t38.5 141.5l111 907l-142 10 q-29 2 -27 25l5 40h173l16 129q11 87 41.5 153t77 110t107 66t129.5 22q32 0 63.5 -5.5t55.5 -15.5l-9 -47q-3 -14 -21 -15q-12 0 -33 3.5t-52 3.5q-50 0 -94 -15t-79 -48t-58.5 -85.5t-32.5 -129.5l-16 -126h331l-9 -73h-328l-112 -912q-12 -100 -47 -172t-90 -119 t-129.5 -69t-164.5 -22v49zM8 -331q0 33 37 33q52 1 101.5 17t89 51.5t68 93t38.5 141.5l111 907l-142 10q-29 2 -27 25l5 40h173l16 129q11 87 41.5 153t77 110t107 66t129.5 22q32 0 63.5 -5.5t55.5 -15.5l-9 -47q-3 -14 -21 -15q-12 0 -33 3.5t-52 3.5q-50 0 -94 -15 t-79 -48t-58.5 -85.5t-32.5 -129.5l-16 -126h331l-9 -73h-328l-112 -912q-12 -100 -47 -172t-90 -119t-129.5 -69t-164.5 -22v49z" />
</font>
</defs>
</svg>
