<?xml version="1.0" standalone="no"?>
<!DOCTYPE svg PUBLIC "-//W3C//DTD SVG 1.1//EN" "http://www.w3.org/Graphics/SVG/1.1/DTD/svg11.dtd" >
<svg xmlns="http://www.w3.org/2000/svg">
<metadata>
This is a custom SVG webfont generated by Font Squirrel.
Copyright   : Copyright c 2013 by Alessio Laiso alessiolaisogmailcom Licensed under the SIL Open Font License Version 11 
Designer    : Alessio Laiso
</metadata>
<defs>
<font id="AleoLight" horiz-adv-x="1579" >
<font-face units-per-em="2048" ascent="1649" descent="-399" />
<missing-glyph horiz-adv-x="493" />
<glyph unicode=" "  horiz-adv-x="493" />
<glyph unicode="&#x09;" horiz-adv-x="493" />
<glyph unicode="&#xa0;" horiz-adv-x="493" />
<glyph unicode="!" horiz-adv-x="436" d="M121 79q0 19 7 36.5t20 30.5t30 20.5t37 7.5q19 0 36.5 -7.5t30.5 -20.5t20.5 -30.5t7.5 -36.5q0 -20 -7.5 -37t-20.5 -30t-30.5 -20t-36.5 -7q-40 0 -67 27t-27 67zM171 863v586h95v-586q0 -46 -1 -87t-2.5 -83.5t-4.5 -89.5t-6 -104h-67q-3 57 -6 104t-4.5 89.5 t-2.5 83.5t-1 87z" />
<glyph unicode="&#x22;" horiz-adv-x="670" d="M144 1150v299h85v-299l-9 -157q-2 -17 -9 -27t-25 -10q-14 0 -22 10t-10 27zM441 1150v299h85v-299l-9 -157q-2 -17 -9 -27t-25 -10q-14 0 -22 10t-10 27z" />
<glyph unicode="#" horiz-adv-x="1146" d="M65 484v10q0 5 2 15l3 16h223l84 399h-259l6 39q4 34 45 33h218l89 414q4 19 17 29t30 10h43l-97 -453h305l97 453h43q32 0 32 -31q0 -8 -1 -12l-89 -410h230l-6 -39q-5 -34 -46 -33h-188l-84 -399h230q31 0 31 -26l-4 -45h-267l-97 -454h-42q-14 0 -23 8.5t-9 25.5 q0 7 1 11l88 409h-305l-89 -413q-5 -23 -17 -32t-30 -9h-43l97 454h-188q-14 0 -22 6.5t-8 23.5zM375 525h305l84 399h-305z" />
<glyph unicode="$" horiz-adv-x="1030" d="M54 173l28 40q12 15 29 15q9 0 22.5 -11t33 -28t46.5 -37t62 -38t80 -31t103 -16l32 651q-70 22 -135.5 48.5t-117.5 68t-83.5 102t-31.5 153.5q0 71 26.5 136.5t78.5 117.5t127.5 83.5t172.5 34.5l10 172q1 14 8.5 23.5t21.5 9.5h37l-11 -206q103 -7 181 -45.5 t142 -102.5l-22 -35q-10 -17 -27 -17q-12 0 -32 16.5t-52 37t-80 39.5t-114 24l-30 -585q48 -15 97 -32t93.5 -37.5t82 -47t66 -62.5t44 -83t15.5 -108q0 -88 -29.5 -166t-85.5 -137t-137 -94.5t-186 -40.5l-11 -216q-1 -13 -8.5 -22.5t-21.5 -9.5h-37l13 248 q-131 6 -228.5 56t-171.5 132zM213 1098q0 -63 22.5 -108.5t61.5 -77.5t89.5 -55t108.5 -43l28 565q-78 -4 -135.5 -28.5t-96.5 -63t-58.5 -87.5t-19.5 -102zM523 67q82 5 146 33t107.5 73.5t66 105.5t22.5 129q0 68 -25.5 114.5t-68.5 79.5t-99 55t-117 41z" />
<glyph unicode="%" horiz-adv-x="1564" d="M92 1101q0 90 23.5 158.5t64.5 114t97 68.5t119.5 23t118.5 -23t96.5 -68.5t65.5 -114t24 -158.5q0 -89 -24.5 -157t-66.5 -113.5t-97 -68.5t-117 -23q-63 0 -119 23t-97 68.5t-64.5 113.5t-23.5 157zM171 1101q0 -79 18 -135t48.5 -91.5t71.5 -52.5t87 -17t87.5 17 t73 52.5t49.5 91.5t18 135t-18 135t-49.5 92.5t-73 53.5t-87.5 17t-87 -17t-71.5 -53.5t-48.5 -92.5t-18 -135zM212 0l1039 1431q6 8 15 13t23 5h69l-1041 -1431q-13 -18 -35 -18h-70zM876 344q0 90 23.5 158.5t64.5 114.5t96.5 69t119 23t119 -23t97 -69t65 -114.5 t23.5 -158.5q0 -89 -24.5 -157t-66 -113t-97 -68t-116.5 -23q-63 0 -119 23t-97 68t-64.5 113t-23.5 157zM953 344q0 -79 18 -134.5t49 -91.5t72.5 -52.5t87.5 -16.5t87.5 16.5t72 52.5t48.5 91.5t18 134.5t-18 136t-48.5 93t-72 53t-87.5 17t-87.5 -17t-72.5 -53t-49 -93 t-18 -136z" />
<glyph unicode="&#x26;" horiz-adv-x="1417" d="M81 371q0 74 26.5 141t72.5 122.5t109.5 99.5t137.5 72q-73 82 -109 159t-36 165q0 72 26 133t74 106t115 70.5t150 25.5q69 0 130.5 -23.5t107 -63.5t72.5 -92.5t29 -109.5q-14 -3 -25 -7q-24 -5 -37 -5q-8 0 -15.5 6.5t-10.5 17.5q-7 27 -24.5 61.5t-47 65.5t-74 52.5 t-105.5 21.5t-111.5 -19t-86 -53.5t-55.5 -81.5t-20 -103q0 -84 43 -161t133 -165l457 -451q46 74 73 154t35 155q2 13 8 20.5t19 7.5h56q-2 -96 -36.5 -198t-97.5 -195l305 -299h-91q-18 0 -30 4t-27 19l-210 205q-46 -53 -101.5 -98t-120 -77.5t-137.5 -50.5t-154 -18 q-77 0 -152 25.5t-133.5 75t-95 122t-36.5 164.5zM180 377q0 -79 30.5 -137.5t78.5 -98t107 -59t116 -19.5q72 0 136 16.5t119.5 46t102 69t85.5 88.5l-470 461q-6 5 -11 12q-68 -29 -122.5 -69t-92.5 -88.5t-58.5 -105t-20.5 -116.5z" />
<glyph unicode="'" horiz-adv-x="374" d="M144 1150v299h85v-299l-9 -157q-2 -17 -9 -27t-25 -10q-14 0 -22 10t-10 27z" />
<glyph unicode="(" horiz-adv-x="515" d="M112 645q0 120 14.5 233t47.5 225t86.5 225.5t132.5 234.5l43 -27q13 -7 14 -22q0 -10 -8 -21q-122 -197 -183.5 -407.5t-61.5 -440.5q0 -229 62 -439.5t184 -406.5q7 -11 8 -21q0 -15 -15 -23l-43 -26q-79 121 -132.5 234t-86.5 225t-47.5 224.5t-14.5 232.5z" />
<glyph unicode=")" horiz-adv-x="517" d="M67 -222q0 10 7 21q123 196 185 406.5t62 439.5q0 230 -62 440.5t-184 407.5q-7 11 -7 21q0 14 13 22l43 27q78 -121 132 -234.5t87 -225.5t48 -225t15 -233t-15 -232.5t-48 -224.5t-87 -225.5t-132 -233.5l-43 26q-14 7 -14 23z" />
<glyph unicode="*" horiz-adv-x="774" d="M104 1357l27 46l194 -113q16 -10 25.5 -19.5t24.5 -27.5q-8 19 -12 34t-4 33v219h54v-218q0 -18 -2.5 -33t-11.5 -34q12 17 22.5 27t27.5 19l192 112l27 -46l-193 -112q-15 -9 -28.5 -14t-30.5 -7q18 -3 31 -7.5t28 -12.5l194 -112l-26 -47l-194 113q-15 9 -25.5 17.5 t-24.5 25.5q6 -18 10 -31.5t4 -30.5v-219h-54v218q0 17 3 30.5t11 30.5q-11 -15 -22 -23.5t-26 -17.5l-193 -112l-26 46l193 112q14 8 27.5 12.5t31.5 7.5q-19 3 -32 8t-27 13z" />
<glyph unicode="+" horiz-adv-x="1148" d="M93 649v75h441v462h79v-462h442v-75h-442v-464h-79v464h-441z" />
<glyph unicode="," horiz-adv-x="466" d="M146 87q0 36 25 61.5t65 25.5q44 0 68 -30t24 -79q0 -42 -11 -86t-31.5 -85.5t-49 -80.5t-63.5 -72l-15 15q-8 8 -8 18q0 5 3 10t7 9q10 10 26 30t31.5 47.5t28.5 60t17 69.5q-6 -2 -13.5 -3t-17.5 -1q-38 0 -62 25.5t-24 65.5z" />
<glyph unicode="-" horiz-adv-x="758" d="M142 566v83h476v-83h-476z" />
<glyph unicode="." horiz-adv-x="472" d="M142 79q0 19 7.5 36.5t20 30.5t29.5 20.5t38 7.5q19 0 36.5 -7.5t30 -20.5t20.5 -30.5t8 -36.5q0 -20 -8 -37t-20.5 -30t-30 -20t-36.5 -7q-40 0 -67.5 27t-27.5 67z" />
<glyph unicode="/" horiz-adv-x="845" d="M49 -86l637 1538q15 38 55 38h42l-636 -1536q-8 -20 -24.5 -30t-33.5 -10h-40z" />
<glyph unicode="0" horiz-adv-x="1264" d="M112 725q0 190 40.5 329.5t111 230.5t164.5 135.5t201.5 44.5t202.5 -44.5t165.5 -135.5t111.5 -230.5t41 -329.5t-41 -329.5t-111.5 -230.5t-165.5 -135.5t-202.5 -44.5t-201.5 44.5t-164.5 135.5t-111 230.5t-40.5 329.5zM212 725q0 -177 34 -301.5t91 -204t133 -115.5 t160 -36t160 36t133 115.5t91 204t34 301.5q0 176 -34 301t-91 204.5t-133 116t-160 36.5t-160 -36.5t-133 -116t-91 -204.5t-34 -301z" />
<glyph unicode="1" horiz-adv-x="924" d="M60 1085l419 370h76v-1378q262 -13 283 -14q33 -2 33 -29v-34h-746v34q0 28 33 29q9 0 83.5 4t145 7t71.5 3v1174q0 35 3 74l-320 -284q-10 -9 -24 -9q-17 0 -27 12z" />
<glyph unicode="2" horiz-adv-x="1112" d="M76 0v35q0 11 5.5 23t13.5 20l495 501q61 62 113 120t90.5 117.5t61 122t22.5 133.5q0 80 -27 139t-71.5 97t-102 56t-121.5 18q-69 0 -126.5 -21t-102 -58t-74 -89t-40.5 -113q-10 -36 -41 -36q-2 0 -5 0.5t-5 0.5l-49 8q12 93 50.5 166t96.5 123t135 76t166 26 q83 0 158.5 -24t132.5 -72.5t91 -121.5t34 -172q0 -82 -25 -152t-68 -134.5t-100 -125.5t-119 -124l-454 -463q33 8 68.5 12t70.5 4h557q2 45 4.5 74.5t4.5 42.5t2 17q2 49 44 49h39h11v-218v-14v-43h-935z" />
<glyph unicode="3" horiz-adv-x="1107" d="M69 354l39 17q12 5 23 5t21.5 -5t15.5 -20l7 -20q6 -18 17.5 -45.5t29.5 -56.5t44.5 -58.5t65 -52.5t90 -37t119.5 -14q92 0 161 30.5t115.5 78t69.5 106.5t23 114q0 67 -21 124.5t-70 98.5t-129.5 65.5t-197.5 24.5v70q94 2 165.5 25t119.5 63t72.5 95.5t24.5 121.5 q0 77 -25.5 133.5t-68.5 93.5t-100 54t-120 17q-69 0 -126 -20.5t-101 -57t-74 -88.5t-44 -115q-8 -36 -38 -36q-7 0 -11 1l-50 8q13 93 51 166t96.5 123t135 76t165.5 26q83 0 157 -23t129.5 -69t88 -114.5t32.5 -158.5q0 -71 -22 -128t-60.5 -100t-91 -72t-113.5 -44 q160 -30 242 -123.5t82 -234.5q0 -89 -36 -165t-98.5 -131.5t-147.5 -86.5t-184 -31q-124 0 -206.5 33t-136 86.5t-83 119.5t-47.5 131z" />
<glyph unicode="4" horiz-adv-x="1207" d="M69 488l728 963h87v-957h265v-54q0 -11 -6.5 -17.5t-21.5 -6.5h-237v-416h-88v416h-683q-15 0 -23.5 6.5t-11.5 17.5zM175 494h621v758q0 17 1 37t4 40z" />
<glyph unicode="5" horiz-adv-x="1040" d="M67 113l28 40q10 15 30 15q13 0 38 -15.5t64.5 -34t93.5 -33.5t125 -15q84 0 157 27t126.5 78t84 126.5t30.5 170.5q0 78 -23 143.5t-69.5 112t-118 72.5t-167.5 26q-58 0 -124 -9t-139 -30l-64 20l114 642h651v-42q0 -20 -13.5 -34t-43.5 -14h-524l-87 -483 q69 17 130 24.5t117 7.5q113 0 199 -32t144 -90t87.5 -138t29.5 -174q0 -115 -40 -205.5t-108 -154t-159 -97t-194 -33.5q-60 0 -114.5 10.5t-102.5 28.5t-88 41.5t-70 48.5z" />
<glyph unicode="6" horiz-adv-x="1104" d="M89 461q0 85 43 192t141 240l396 532q17 24 52 24h86l-432 -564q-32 -42 -58.5 -79t-48.5 -73q60 62 143.5 97.5t181.5 35.5q93 0 172 -30.5t135.5 -86.5t89 -135t32.5 -177.5t-35.5 -181.5t-98.5 -143.5t-151 -94t-193 -33.5q-101 0 -185.5 32.5t-144 94t-92.5 150 t-33 200.5zM184 437q0 -81 25 -149.5t71.5 -118t113 -77t149.5 -27.5q88 0 158.5 27.5t120 76t76.5 115.5t27 146q0 83 -26.5 150t-74 113.5t-113 72t-145.5 25.5q-90 0 -161 -31.5t-120 -81t-75 -113t-26 -128.5z" />
<glyph unicode="7" horiz-adv-x="1127" d="M89 1174v212v63h105h859v-44q0 -17 -4 -30t-9 -22l-664 -1316q-8 -16 -22 -26.5t-37 -10.5h-66l669 1311q13 27 31 48h-761q-6 -117 -7 -136q-2 -50 -44 -49h-50z" />
<glyph unicode="8" horiz-adv-x="1133" d="M97 383q0 80 23 142.5t65 108.5t100 76.5t128 46.5q-63 18 -112.5 50t-83 76t-50.5 97.5t-17 115.5q0 77 29 144.5t83 117.5t131.5 78.5t174.5 28.5q96 0 173.5 -28.5t132.5 -78.5t84 -118t29 -144q0 -61 -17.5 -115t-51 -98t-83 -76t-112.5 -50q70 -15 127.5 -46 t99.5 -77t65.5 -108.5t23.5 -142.5q0 -92 -34.5 -166t-96.5 -126t-148.5 -79.5t-191 -27.5t-191 27.5t-148.5 79.5t-97 126t-35 166zM198 384q0 -73 26.5 -132t75 -101.5t117 -66t151.5 -23.5t151 23.5t117.5 66t76 101.5t26.5 132q0 95 -35 158.5t-89 101.5t-119.5 54 t-127 16t-127 -16t-120 -54t-89 -101.5t-34.5 -158.5zM245 1095q0 -58 19 -112.5t58.5 -97t100.5 -67.5t145 -25q83 0 144 25t101 67.5t59 96.5t19 113q0 62 -21.5 116t-63 94t-101.5 62.5t-136.5 22.5t-137 -23t-102 -62.5t-63 -93.5t-21.5 -116z" />
<glyph unicode="9" horiz-adv-x="1088" d="M91 1030q0 93 34.5 172.5t96 138t146 91.5t184.5 33q96 0 176.5 -32.5t138.5 -92.5t90 -143.5t32 -185.5q0 -56 -11.5 -107.5t-34.5 -102.5t-56 -105t-75 -115l-380 -557q-15 -24 -50 -24h-88l428 598q31 43 57 81.5t47 74.5q-59 -66 -143.5 -102t-180.5 -36 q-89 0 -164.5 29.5t-130 83.5t-85.5 130.5t-31 170.5zM188 1036q0 -80 25 -144t69.5 -108.5t107.5 -68t139 -23.5q87 0 155.5 30t115.5 78t71 108t24 121q0 79 -25.5 144.5t-71.5 112t-109 72.5t-138 26q-80 0 -147 -25.5t-114.5 -71.5t-74.5 -110t-27 -141z" />
<glyph unicode=":" horiz-adv-x="467" d="M140 79q0 19 7.5 36.5t20 30.5t29.5 20.5t37 7.5q19 0 37 -7.5t30.5 -20.5t20.5 -30.5t8 -36.5q0 -20 -8 -37t-20.5 -30t-30 -20t-37.5 -7q-40 0 -67 27t-27 67zM140 895q0 19 7.5 36.5t20 30.5t29.5 20.5t37 7.5q19 0 37 -7.5t30.5 -20.5t20.5 -30.5t8 -36.5 q0 -20 -8 -37t-20.5 -30t-30 -20t-37.5 -7q-40 0 -67 27t-27 67z" />
<glyph unicode=";" horiz-adv-x="468" d="M143 895q0 19 7.5 36.5t20 30.5t29.5 20.5t38 7.5q19 0 36.5 -7.5t30 -20.5t20.5 -30.5t8 -36.5q0 -20 -8 -37t-20.5 -30t-30 -20t-36.5 -7q-40 0 -67.5 27t-27.5 67zM148 87q0 36 25 61.5t65 25.5q44 0 68 -30t24 -79q0 -42 -11 -86t-31.5 -85.5t-49 -80.5t-63.5 -72 l-15 15q-8 8 -8 18q0 5 3 10t7 9q10 10 26 30t32 47.5t28.5 60t16.5 69.5q-6 -2 -13.5 -3t-17.5 -1q-38 0 -62 25.5t-24 65.5z" />
<glyph unicode="&#x3c;" horiz-adv-x="973" d="M95 667v42l768 394v-67q0 -11 -6 -19t-21 -17l-567 -286q-34 -17 -73 -27q43 -9 73 -25l567 -288q15 -8 21 -16.5t6 -19.5v-67z" />
<glyph unicode="=" horiz-adv-x="1129" d="M142 494v75h847v-75h-847zM142 814v76h847v-76h-847z" />
<glyph unicode="&#x3e;" horiz-adv-x="973" d="M110 271v67q0 11 6 20t20 16l567 288q32 16 73 25q-20 5 -37.5 12t-35.5 15l-567 286q-27 14 -26 36v67l768 -394v-42z" />
<glyph unicode="?" horiz-adv-x="842" d="M66 1323q28 28 62.5 53.5t76 45.5t90.5 31.5t106 11.5q72 0 135.5 -21.5t111 -61.5t76 -97.5t28.5 -129.5q0 -78 -24.5 -134t-61 -98.5t-79.5 -75t-80.5 -60.5t-63.5 -57t-28 -63l-13 -168h-66l-5 175v5q0 42 24.5 73.5t61 61.5t79 60.5t78.5 69t60.5 88.5t24.5 119 q0 55 -21.5 98.5t-58 74t-85 46.5t-100.5 15q-68 0 -117.5 -17.5t-83 -39.5t-53 -40t-26.5 -18q-15 0 -23 12zM272 79q0 19 7.5 36.5t20 30.5t29.5 20.5t38 7.5q19 0 36.5 -7.5t30 -20.5t20.5 -30.5t8 -36.5q0 -20 -8 -37t-20.5 -30t-30 -20t-36.5 -7q-40 0 -67.5 27 t-27.5 67z" />
<glyph unicode="@" horiz-adv-x="1661" d="M97 562q0 171 60.5 317.5t165 254t244 168.5t297.5 61q137 0 263 -42.5t223 -127t155 -209.5t58 -290q0 -112 -30 -204t-81.5 -158t-121 -102.5t-148.5 -36.5q-90 0 -136 47.5t-48 136.5q-57 -95 -129 -137.5t-156 -42.5q-57 0 -99.5 20t-70 54.5t-41.5 81.5t-14 102 q0 87 33.5 174.5t97.5 157.5t157 114t212 44q54 0 102 -9t86 -27l-94 -355q-12 -47 -17.5 -84.5t-5.5 -67.5q0 -45 11 -73t30 -44.5t43.5 -22t51.5 -5.5q58 0 111.5 30.5t94.5 87.5t65 138t24 181q0 152 -49.5 265t-135 188t-199.5 111.5t-242 36.5q-140 0 -265.5 -54 t-220 -151.5t-150.5 -232t-56 -295.5q0 -181 58 -319t157 -230.5t232 -140t282 -47.5q152 0 277.5 35t227.5 101q7 5 17 5q14 0 21 -14l15 -38q-115 -76 -252.5 -117t-305.5 -41q-169 0 -315.5 54t-255 157t-171 253t-62.5 342zM568 457q0 -41 10.5 -76.5t31 -61t50.5 -40.5 t71 -15q37 0 76.5 12.5t76 44.5t68 87t53.5 140l81 317q-25 7 -50.5 11t-60.5 4q-92 0 -167.5 -37.5t-128 -98t-82 -135.5t-29.5 -152z" />
<glyph unicode="A" horiz-adv-x="1580" d="M77 0v47q0 37 39 41l66 7l555 1354h104l554 -1354l66 -7q40 -4 40 -41v-47h-67h-42h-39h-13h-193v47q0 39 47 42q4 0 13 1t29 2t52 3l-144 354l-10 26h-691l-10 -26l-143 -354q32 -2 52 -3t28.5 -2t12.5 -1q47 -2 47 -42v-47h-192h-14h-39h-41h-67zM475 553h628l-285 706 q-7 17 -15 39q-7 23 -14 47q-7 -24 -14 -47q-8 -22 -15 -41z" />
<glyph unicode="B" horiz-adv-x="1306" d="M103 0v41q0 34 41 36q4 0 19 0.5t45.5 1.5t67.5 2v1287q-37 2 -67.5 2.5t-45 1t-19.5 0.5q-41 2 -41 36v41h173h417q124 0 214.5 -24.5t150 -72t88.5 -116.5t29 -156q0 -57 -20 -110t-58 -98.5t-92.5 -78.5t-125.5 -51q171 -25 263 -113t92 -233q0 -92 -32.5 -165.5 t-95 -125t-153.5 -78.5t-207 -27h-470h-173zM380 84h364q191 0 288.5 82.5t97.5 231.5q0 69 -26 124t-75.5 93t-121 58.5t-162.5 20.5h-365v-610zM380 771h315q100 0 171 25.5t117 67.5t67.5 95.5t21.5 109.5q0 146 -93 221.5t-286 75.5h-313v-595z" />
<glyph unicode="C" horiz-adv-x="1319" d="M76 725q0 165 51.5 301t145.5 234t224.5 151.5t287.5 53.5q203 0 463 -104v-326h-50q-42 0 -44 49q-1 24 -11 222q-158 69 -352 69h-6q-132 0 -242.5 -45.5t-190.5 -130t-124.5 -205t-44.5 -269.5q0 -154 44 -274.5t122 -204t184 -128t230 -44.5q78 0 139 10t112 30.5 t95 50.5t87 69q5 4 9.5 7t10.5 3q11 0 18 -7l41 -44q-45 -48 -98.5 -86.5t-116.5 -66t-138 -42t-165 -14.5q-151 0 -276.5 52.5t-215 149.5t-139.5 234t-50 305z" />
<glyph unicode="D" horiz-adv-x="1556" d="M103 0v41q0 34 41 36q4 0 19 0.5t45.5 1.5t67.5 2v1287q-37 1 -67.5 2t-45 1.5t-19.5 0.5q-41 2 -41 36v41h173h503q155 0 281.5 -50t218 -144.5t141.5 -228.5t50 -301q0 -168 -50 -302t-141.5 -228.5t-218 -144.5t-281.5 -50h-503h-173zM381 85h398q131 0 238.5 43 t184 125t118.5 200.5t42 271.5q0 152 -42 270.5t-118.5 200.5t-184 125t-238.5 43h-398v-1279z" />
<glyph unicode="E" horiz-adv-x="1274" d="M103 0v41q0 34 41 36q4 0 19 0.5t45.5 1.5t67.5 2v1287q-37 1 -67.5 2t-45 1.5t-19.5 0.5q-41 2 -41 36v41h173h868v-87v-213h-50q-42 0 -44 50q-1 28 -8 163h-661v-586h577v-85h-577v-604h661q1 26 3.5 71.5t3.5 66t1 25.5q2 50 44 50h50v-213v-87h-868h-173z" />
<glyph unicode="F" horiz-adv-x="1218" d="M103 0v41q0 34 41 36q4 0 19 0.5t45.5 1.5t67.5 2v1287q-37 1 -67.5 2t-45 1.5t-19.5 0.5q-41 2 -41 36v41h173h817h51h13v-300h-49q-42 0 -45 50q-1 15 -8 163h-674v-609h541v-87h-541v-585q37 -1 67.5 -2t45.5 -1.5t19 -0.5q41 -2 41 -36v-41h-173h-105h-173z" />
<glyph unicode="G" horiz-adv-x="1430" d="M76 725q0 168 51 304.5t145.5 233.5t229 149.5t301.5 52.5q109 0 261.5 -30t248.5 -74v-326h-50q-42 0 -44 49q-1 21 -11 220q-151 71 -408 71q-141 0 -255 -45t-194.5 -129t-124 -204.5t-43.5 -271.5q0 -154 44 -275.5t123.5 -206t190.5 -129.5t245 -45q75 0 136.5 7.5 t114.5 23t100.5 37.5t95.5 49v391h-279q-11 0 -18.5 7t-7.5 16v57h400v-515q-54 -38 -112.5 -67.5t-124.5 -49.5t-143.5 -30.5t-168.5 -10.5q-157 0 -286.5 52.5t-222 149.5t-143.5 234t-51 305z" />
<glyph unicode="H" horiz-adv-x="1660" d="M103 0v41q0 34 41 36q4 0 19 0.5t45.5 1.5t67.5 2v1287q-37 1 -67.5 2t-45 1.5t-19.5 0.5q-41 2 -41 36v42h173h105h173v-42q0 -34 -41 -36q-4 0 -19 -0.5t-45.5 -1.5t-67.5 -2v-595h908v595q-37 1 -67.5 2t-45.5 1.5t-19 0.5q-41 2 -41 36v42h173h105h173v-42 q0 -34 -41 -36q-5 0 -19.5 -0.5t-45 -1.5t-67.5 -2v-1287q37 -1 67.5 -2t45.5 -1.5t19 -0.5q41 -2 41 -36v-41h-173h-105h-173v41q0 34 41 36q5 0 19.5 0.5t45 1.5t67.5 2v613h-908v-613q36 -1 67 -2t46 -1.5t19 -0.5q41 -2 41 -36v-41h-173h-105h-173z" />
<glyph unicode="I" horiz-adv-x="648" d="M103 0v41q0 34 41 36q4 0 19 0.5t45.5 1.5t67.5 2v1287q-37 1 -67.5 2t-45 1.5t-19.5 0.5q-41 2 -41 36v42h173h105h173v-42q0 -34 -41 -36q-4 0 -19 -0.5t-45.5 -1.5t-67.5 -2v-1287q37 -1 67.5 -2t45.5 -1.5t19 -0.5q41 -2 41 -36v-41h-173h-105h-173z" />
<glyph unicode="J" horiz-adv-x="922" d="M78 13q2 15 3 29q2 15 3 29q2 9 7.5 16t20.5 7q9 0 21.5 -3.5t30.5 -7.5t41 -7.5t54 -3.5q78 0 140.5 24.5t106.5 75t67 128t23 181.5v887q-37 2 -71 2.5t-53 1t-23 0.5q-41 2 -40 36v41h187h105h173v-41q0 -34 -41 -36q-4 0 -19 -0.5t-45.5 -1.5t-67.5 -2v-885 q0 -122 -30 -215t-86 -156.5t-136 -95.5t-181 -32q-46 0 -93 7t-97 22z" />
<glyph unicode="K" horiz-adv-x="1470" d="M102 0v41q0 34 41 36q4 0 19 0.5t45.5 1.5t67.5 2v1289q-37 1 -67.5 2t-45.5 1.5t-19 0.5q-41 2 -41 36v41h173h104h173v-41q0 -34 -41 -36q-4 0 -19 -0.5t-45.5 -1.5t-67.5 -2v-590h86q19 0 34 1.5t26.5 6.5t21.5 12t22 18l537 552q-29 1 -65.5 1.5t-57.5 0.5h-24 q-41 2 -41 36v41h263h19h143v-41q0 -34 -41 -36q-4 0 -12 -0.5t-26 -1t-38 -1.5l-556 -570q-19 -20 -34 -31.5t-33 -18.5q21 -6 38 -19t34 -34l591 -616q21 -1 39.5 -1.5t27 -1t12.5 -0.5q41 -2 41 -36v-41h-43h-85h-25h-9h-273v41q0 34 41 36q4 0 26 0.5t60 1t68 0.5 l-563 575q-12 11 -20 20q-9 8 -21 13.5t-28.5 8t-40.5 2.5h-94v-617q36 -1 67 -2t46 -1.5t19 -0.5q41 -2 41 -36v-41h-173h-104h-173z" />
<glyph unicode="L" horiz-adv-x="1192" d="M103 0v41q0 34 41 36q4 0 19 0.5t45.5 1.5t67.5 2v1287q-37 1 -67.5 2t-45 1.5t-19.5 0.5q-41 2 -41 36v42h173h104h173v-42q0 -34 -41 -36q-5 0 -19.5 -0.5t-45 -1.5t-67.5 -2v-1279h600q2 44 4.5 73t4.5 41.5t2 17.5q2 49 44 49h10h40v-149v-83v-38h-18h-18h-773h-173z " />
<glyph unicode="M" horiz-adv-x="1974" d="M103 0v41q0 34 41 36q4 0 19 0.5t45.5 1.5t67.5 2v1287q-37 1 -67.5 2t-45 1.5t-19.5 0.5q-41 2 -41 36v42h173h72q14 0 22.5 -3.5t17.5 -17.5l584 -1007q15 -29 27 -62q6 17 12.5 33t15.5 30l569 1006q8 13 16 16.5t23 4.5h72h173v-42q0 -34 -41 -36q-5 0 -19 -1 q-15 0 -45.5 -1t-67.5 -2v-1287q37 -1 67.5 -2t45.5 -1t19 -1q41 -2 41 -36v-41h-173h-92h-177v41q0 34 41 36q4 0 20.5 0.5t48 1.5t67.5 2v1154q0 27 3 56l-570 -1012q-14 -27 -41 -27h-16q-26 0 -41 27l-586 1013q3 -30 3 -57v-1154q37 -1 68.5 -2t47.5 -1t21 -1 q41 -2 40 -36v-41h-177h-91h-173z" />
<glyph unicode="N" horiz-adv-x="1616" d="M103 0v41q0 34 41 36q4 0 19 0.5t45.5 1.5t67.5 2v1287q-37 1 -67.5 2t-45 1.5t-19.5 0.5q-41 2 -41 36v42h173h51q14 0 22.5 -4t17.5 -17l938 -1255q-3 31 -3 59v1135q-37 1 -68.5 2t-47.5 1.5t-20 0.5q-41 2 -41 36v42h177h92h173v-42q0 -34 -41 -36q-4 0 -19 -0.5 t-45.5 -1.5t-67.5 -2v-1368h-50q-24 0 -38 21l-942 1257q3 -31 3 -58v-1139q37 -1 68.5 -2t47.5 -1t20 -1q41 -2 41 -36v-41h-177h-91h-173z" />
<glyph unicode="O" horiz-adv-x="1543" d="M76 725q0 167 50.5 303.5t141.5 233.5t218 150t280 53q155 0 282 -52.5t218 -150t141 -234t50 -303.5q0 -168 -50 -304.5t-141 -233.5t-218 -149.5t-282 -52.5q-153 0 -280 52.5t-218 149.5t-141.5 233.5t-50.5 304.5zM183 725q0 -153 42.5 -273t120 -204t184.5 -128 t236 -44q131 0 238.5 44t184 128t118.5 204t42 273q0 152 -42 272.5t-118.5 204.5t-184 128.5t-238.5 44.5q-129 0 -236 -44.5t-184.5 -128.5t-120 -204.5t-42.5 -272.5z" />
<glyph unicode="P" horiz-adv-x="1214" d="M103 0v41q0 34 41 36q4 0 19 0.5t45.5 1.5t67.5 2v1287q-37 1 -67.5 2t-45 1.5t-19.5 0.5q-41 2 -41 36v41h173h353q254 0 384 -111.5t130 -318.5q0 -95 -35.5 -175t-102 -138t-162 -90t-215.5 -32h-248v-503q37 -1 67.5 -2t45.5 -1.5t19 -0.5q41 -2 41 -36v-41h-173 h-104h-173zM380 668h249q96 0 171.5 26.5t128.5 73.5t81 111t28 140q0 167 -103 257t-306 90h-249v-698z" />
<glyph unicode="Q" horiz-adv-x="1554" d="M75 725q0 167 50.5 303.5t141.5 233.5t218 150t280 53q155 0 282 -52.5t218 -150t141 -234t50 -303.5q0 -110 -22 -206.5t-63 -178t-100 -146t-132 -110.5l377 -403h-89q-20 0 -36.5 5.5t-28.5 19.5l-309 334q-65 -27 -136.5 -41t-151.5 -14q-153 0 -280 52.5t-218 149.5 t-141.5 233.5t-50.5 304.5zM182 725q0 -153 42.5 -273t120 -204t184.5 -128t236 -44q131 0 238.5 44t184 128t118.5 204t42 273q0 152 -42 272.5t-118.5 204.5t-184 128.5t-238.5 44.5q-129 0 -236 -44.5t-184.5 -128.5t-120 -204.5t-42.5 -272.5z" />
<glyph unicode="R" horiz-adv-x="1385" d="M103 0v41q0 34 41 36q4 0 19 0.5t45.5 1.5t67.5 2v1287q-37 1 -67.5 2t-45 1.5t-19.5 0.5q-41 2 -41 36v41h173h352q251 0 374.5 -97t123.5 -284q0 -83 -28.5 -151.5t-82 -120.5t-129.5 -85t-171 -43q25 -15 44 -41l435 -548q19 -1 37 -1t27 -0.5t13 -0.5q41 -2 41 -36 v-41h-54h-81h-11q-16 0 -28 6t-23 21l-464 587q-17 23 -37 32t-62 9h-172v-574q36 -1 67 -2t45.5 -1.5t19.5 -0.5q41 -2 41 -36v-41h-173h-104h-173zM380 733h235q96 0 172 23t129 66t80.5 103.5t27.5 136.5q0 155 -101.5 229.5t-294.5 74.5h-248v-633z" />
<glyph unicode="S" horiz-adv-x="1052" d="M117 63v28v25v272h50q42 0 44 -50q0 -4 1.5 -37t4.5 -82.5t4 -91.5q118 -56 288 -56q86 0 154 26t114.5 71t71 107t24.5 133q0 77 -31 126.5t-82.5 82.5t-116.5 56q-66 23 -134 44q-69 22 -134 48.5t-116 68t-82.5 103t-31.5 155.5q0 73 28 140t81 119t131.5 83t179.5 31 q180 0 374 -84v-297h-50q-42 0 -44 50q-1 16 -9 192q-124 52 -271 52q-79 0 -139 -22.5t-100.5 -61.5t-61.5 -90t-21 -107q0 -74 31 -122t82.5 -82t116.5 -57t134 -45q69 -23 134 -50t116 -68t82.5 -101t31.5 -149q0 -91 -31.5 -171.5t-91 -140t-145.5 -93.5t-196 -34 q-202 0 -390 79z" />
<glyph unicode="T" horiz-adv-x="1275" d="M62 1148v301h14h30h1067h29h15v-301h-50q-42 0 -44 50q0 5 -8 162h-422v-1279q37 -1 67 -2l45 -1q15 0 20 -1q41 -2 40 -36v-41h-172h-105h-172v41q0 34 40 36q4 0 19.5 0.5t46 1.5t66.5 2v1279h-424q-7 -141 -8 -162q-2 -50 -44 -50h-50z" />
<glyph unicode="U" horiz-adv-x="1539" d="M48 1408v41h173h105h198v-41q0 -34 -40 -36q-4 0 -26 -0.5t-58.5 -1.5t-73.5 -2v-814q0 -101 30 -188.5t87 -152.5t139.5 -101.5t187 -36.5t187 36t139.5 100.5t87.5 152.5t30.5 189v815q-37 1 -73.5 2t-58.5 1.5t-26 0.5q-41 2 -40 36v41h198h104h173v-41q0 -34 -41 -36 q-5 0 -19.5 -0.5t-45 -1.5t-67.5 -2v-815q0 -120 -37.5 -224t-109 -181t-173.5 -121t-228.5 -44t-228.5 44t-173.5 121t-109 181t-37.5 224v815q-37 2 -67.5 2.5t-45.5 1t-19 0.5q-41 2 -41 36z" />
<glyph unicode="V" horiz-adv-x="1563" d="M50 1408v41h86h84h219v-41q0 -34 -41 -36q-5 0 -17 -0.5t-39.5 -1.5t-62.5 -2l472 -1149q19 -47 32 -100q11 55 29 100l471 1149q-35 1 -62.5 2t-39.5 1.5t-17 0.5q-41 2 -40 36v41h216h4h82h86v-41q0 -34 -41 -36q-3 0 -13 -1t-27 -1.5t-39 -1.5l-564 -1368h-93 l-565 1368q-22 1 -38.5 2t-27 1.5t-13.5 0.5q-41 2 -41 36z" />
<glyph unicode="W" horiz-adv-x="2258" d="M50 1408v42h86h87h216v-42q0 -34 -41 -36q-5 0 -17 -0.5t-40 -1.5t-63 -2l349 -1138q6 -21 11 -44q5 -27 9 -49q5 27 11 49q5 23 12 44l410 1191q4 11 14 19.5t25 9.5h28q14 0 23.5 -8t14.5 -21l410 -1191q7 -21 12.5 -43t10.5 -48q5 24 9.5 47.5t10.5 43.5l349 1138 q-36 1 -65.5 2t-43 1.5t-17.5 0.5q-41 2 -41 36v42h216h6h80h86v-42q0 -34 -40 -36q-4 0 -13 -0.5t-24 -1.5t-34 -2l-431 -1368h-94l-428 1257q-8 24 -14 53q-6 -28 -15 -53l-429 -1257h-93l-431 1368q-19 1 -34 2t-24.5 1.5t-12.5 0.5q-41 2 -41 36z" />
<glyph unicode="X" horiz-adv-x="1499" d="M91 0v41q0 34 41 36q3 0 13.5 1t28 1.5t41.5 1.5l466 662l-442 625q-23 1 -41 1.5t-28.5 1.5t-13.5 1q-41 2 -41 36v41h66h30h74h3h225v-41q0 -34 -41 -36q-5 0 -15 -0.5t-36.5 -1.5t-61.5 -2l399 -574q3 9 6 15q4 8 9 16l383 543q-37 1 -66 2t-42.5 1.5t-18.5 0.5 q-41 2 -40 36v41h233h7h62h38h65v-41q0 -34 -40 -36q-3 0 -14 -1t-28.5 -1.5t-40.5 -1.5l-443 -619l465 -668q21 -1 36.5 -2t25.5 -1t13 -1q41 -2 41 -36v-41h-60h-31h-72h-10h-220v41q0 34 41 36q5 0 15 0.5t37.5 1.5t62.5 2l-418 612q-4 -15 -15 -29l-409 -583 q36 -1 65.5 -2t43 -1t17.5 -1q41 -2 41 -36v-41h-233h-11h-58h-37h-67z" />
<glyph unicode="Y" horiz-adv-x="1408" d="M50 1408v41h65h11h80h17h205v-41q0 -34 -40 -36q-5 0 -16 -0.5t-36 -1.5t-55 -2l380 -610q14 -24 24.5 -46t18.5 -44q8 23 18.5 44.5t24.5 45.5l380 610q-31 1 -56 2t-36 1.5t-15 0.5q-41 2 -41 36v41h206h15h81h11h65v-41q0 -34 -41 -36q-51 -3 -75 -4l-485 -770v-517 q36 -1 67 -2t46 -1.5t19 -0.5q41 -2 41 -36v-41h-173h-105h-172v41q0 34 40 36q5 0 20 1l45 1q30 1 67 2v517l-485 770q-22 1 -75 4q-41 2 -41 36z" />
<glyph unicode="Z" horiz-adv-x="1297" d="M105 0v38q0 19 13 37l921 1287h-799q-2 -45 -5.5 -84.5t-6 -62.5t-2.5 -27q-2 -49 -42 -49h-2h-50v310h1047v-36q0 -22 -15 -42l-919 -1284h818q2 45 5.5 84.5t5.5 62.5t2 27q2 49 43 49h2h49v-310h-1065z" />
<glyph unicode="[" horiz-adv-x="551" d="M174 -270v1823h326v-36q0 -13 -9 -21.5t-23 -8.5h-211v-1691h211q14 0 23 -8t9 -21v-37h-326z" />
<glyph unicode="\" horiz-adv-x="848" d="M67 1490h42q40 0 55 -38l637 -1538h-40q-17 0 -33.5 9.5t-25.5 30.5z" />
<glyph unicode="]" horiz-adv-x="548" d="M51 -233q0 13 8.5 21t22.5 8h211v1691h-211q-14 0 -22.5 8t-8.5 22v36h325v-1823h-325v37z" />
<glyph unicode="^" horiz-adv-x="931" d="M86 819l349 630h62l349 -630h-70q-11 0 -19.5 7t-14.5 17l-246 446q-9 17 -16.5 32.5t-12.5 32.5q-5 -16 -11.5 -32t-16.5 -33l-245 -446q-5 -8 -13.5 -16t-21.5 -8h-73z" />
<glyph unicode="_" horiz-adv-x="1168" d="M179 -210h807v-70h-807v70z" />
<glyph unicode="`" horiz-adv-x="556" d="M120 1465h94q25 0 37 -7t23 -25l161 -244h-55q-12 0 -21 3.5t-17 13.5z" />
<glyph unicode="a" horiz-adv-x="1050" d="M82 247q0 65 37 120t115 96t201.5 65.5t296.5 28.5v107q0 141 -61 217t-181 76q-74 0 -125.5 -20.5t-87 -45t-58 -45t-38.5 -20.5q-20 0 -30 19l-18 29q80 80 168 121t200 41q82 0 143 -26t101.5 -74.5t61 -117.5t20.5 -154v-584q24 -1 46.5 -1.5t33.5 -0.5t15 -1 q41 -2 40 -36v-41h-135h-37h-2q-31 0 -37 29l-15 130q-42 -41 -83.5 -74t-86.5 -55.5t-97 -34t-115 -11.5q-52 0 -101 15t-87 47t-61 81.5t-23 119.5zM176 251q0 -51 17 -88.5t44.5 -61.5t64.5 -35.5t77 -11.5q59 0 109 13t92.5 36t79 54.5t72.5 68.5v266q-145 -4 -250 -22 t-173 -49t-100.5 -73.5t-32.5 -96.5z" />
<glyph unicode="b" horiz-adv-x="1120" d="M44 1449v41h148h97l1 -649q68 90 157 142t201 52q187 0 292 -129.5t105 -389.5q0 -112 -29.5 -208.5t-86 -167.5t-139 -112t-190.5 -41q-138 0 -408 57v52v1313q-28 1 -50 2t-31 1t-15.5 0.5t-10.5 0.5q-41 2 -41 36zM289 107q208 -43 289 -43h4q90 0 157.5 32.5 t113 92.5t69 143.5t23.5 183.5q0 227 -84.5 334t-241.5 107q-102 0 -183.5 -52t-146.5 -145v-653z" />
<glyph unicode="c" horiz-adv-x="940" d="M79 510q0 117 30.5 213t89.5 165.5t144.5 108t196.5 38.5q36 0 107 -16t125 -32l53 -16v-256h-50q-42 0 -44 49q0 4 -2 25t-5 57.5t-6 77.5q-95 34 -169 34h-4q-88 0 -156.5 -31t-115 -89.5t-71 -141.5t-24.5 -186q0 -108 25 -190.5t71.5 -139.5t112 -86.5t144.5 -29.5 q74 0 124 17t82 37.5t51 38t30 17.5q14 0 21 -10l26 -33q-24 -31 -59.5 -57.5t-80.5 -46t-98 -30t-110 -10.5q-97 0 -177.5 35t-138.5 102t-90 164.5t-32 221.5z" />
<glyph unicode="d" horiz-adv-x="1147" d="M78 507q0 112 29 208.5t86 167.5t139.5 112t190.5 41q104 0 179.5 -38t131.5 -112v523q-28 1 -50.5 2t-31 1t-15 0.5t-11.5 0.5q-41 2 -40 36v41h148h97v-1409q24 -1 44 -2t28 -1t14 -0.5t10 -0.5q41 -2 41 -36v-10v-31h-137h-54q-25 0 -29 27l-10 160q-68 -92 -159 -146 t-203 -54q-188 0 -293 130t-105 390zM178 507q0 -227 84 -334t241 -107q102 0 184 52t147 145v538q-60 87 -131.5 123t-161.5 36t-157.5 -33t-113.5 -93t-69 -143.5t-23 -183.5z" />
<glyph unicode="e" horiz-adv-x="1017" d="M79 530q0 110 31 202.5t90 159.5t144.5 105t194.5 38q86 0 159 -29.5t127 -86.5t84 -140t30 -190q0 -23 -6.5 -31t-21.5 -8h-736v-20q0 -115 26.5 -201.5t76 -145.5t119 -88.5t155.5 -29.5q77 0 133 16.5t94.5 37.5t61 38t32.5 17q13 0 21 -10l27 -33 q-25 -31 -65.5 -57.5t-90 -45.5t-106.5 -30t-114 -11q-104 0 -190.5 36t-148 106t-94.5 170.5t-33 230.5zM179 612h672q0 82 -22.5 147t-63.5 110t-98 69.5t-127 24.5q-79 0 -141.5 -25t-108 -71t-74 -110.5t-37.5 -144.5z" />
<glyph unicode="f" horiz-adv-x="784" d="M92 947v40h173v129q0 87 22.5 153t63.5 110t99 66t128 22q32 0 64 -5.5t56 -15.5l-3 -47q-1 -14 -19 -15q-12 0 -33 3.5t-52 3.5q-50 0 -92.5 -15t-73.5 -48t-48 -85.5t-17 -129.5v-126h331v-73h-329v-833q36 -1 67 -2t46 -1.5t19 -0.5q41 -2 41 -36v-41h-173h-93h-173 v41q0 34 41 36q4 0 18.5 0.5t44.5 1.5t65 2v831l-143 10q-30 2 -30 25z" />
<glyph unicode="g" horiz-adv-x="1057" d="M62 -108q0 81 53.5 139.5t146.5 90.5q-51 17 -81 50t-30 91q0 22 8 45.5t24.5 46.5t39.5 43.5t53 36.5q-73 42 -113 111.5t-40 163.5q0 74 26 133.5t73.5 102.5t115 66.5t149.5 23.5q67 0 124 -16t102 -46h261v-34q0 -26 -29 -28l-154 -11q29 -39 44 -87.5t15 -103.5 q0 -74 -26.5 -134t-74.5 -102.5t-114.5 -66t-147.5 -23.5q-88 0 -159 27q-43 -25 -67.5 -59t-24.5 -65q0 -44 30.5 -67.5t81 -34.5t115.5 -14t132.5 -6.5t132.5 -13t115.5 -32.5t81 -64.5t30.5 -109.5q0 -63 -31.5 -122t-91.5 -104t-145 -72t-190 -27q-108 0 -189 22 t-135.5 59.5t-82.5 86.5t-28 104zM150 -96q0 -45 23 -83.5t67.5 -66.5t109 -44.5t148.5 -16.5q78 0 145 17.5t116.5 49t77.5 75.5t28 96q0 48 -25 77.5t-67 46t-96.5 23t-114.5 9.5t-120.5 6t-112.5 12q-39 -15 -72.5 -35t-57 -45t-36.5 -55t-13 -66zM213 707.5 q0 -57.5 18.5 -104.5t54 -81t86 -52.5t115.5 -18.5q66 0 117 18.5t86 52.5t53 81t18 104.5t-18.5 105t-54 81.5t-86 52.5t-115 18.5t-115.5 -18.5t-86.5 -52.5t-54 -81.5t-18.5 -105z" />
<glyph unicode="h" horiz-adv-x="1277" d="M100 0v41q0 34 41 36q5 0 13 0.5t33.5 1.5t60.5 2v1328q-28 1 -50 2t-31 1t-15.5 0.5t-10.5 0.5q-41 2 -41 36v41h148h98v-645q71 87 161 138.5t203 51.5q84 0 148 -26.5t106 -76.5t63.5 -121t21.5 -160v-570q28 -1 50 -2t31 -1t15.5 -0.5t10.5 -0.5q41 -2 41 -36v-41 h-148h-97v651q0 143 -65.5 224.5t-200.5 81.5q-100 0 -186.5 -51.5t-153.5 -141.5v-683q28 -1 49.5 -2t30.5 -1t15.5 -0.5t11.5 -0.5q41 -2 40 -36v-41h-147h-98h-148z" />
<glyph unicode="i" horiz-adv-x="578" d="M102 0v41q0 34 41 36q5 0 13 0.5t33.5 1.5t60.5 2v857q-28 1 -50 2t-31 1t-15.5 0.5t-10.5 0.5q-41 2 -41 36v41h148h98v-938q28 -1 50 -2t31 -1t15.5 -0.5t10.5 -0.5q41 -2 41 -36v-41h-148h-98h-148zM209 1370.5q0 18.5 7.5 35t19.5 29t28.5 19.5t35 7t35 -7 t28.5 -19.5t20 -29t8 -35t-8 -34.5t-20 -28.5t-28.5 -19.5t-35 -7t-35 7t-28.5 19.5t-19.5 28.5t-7.5 34.5z" />
<glyph unicode="j" horiz-adv-x="516" d="M7 -356l5 49q1 12 15 12q8 0 23 -4t40 -4q83 0 123 45t40 128v1068q-28 1 -50 2t-31 1t-15.5 0.5t-10.5 0.5q-41 2 -41 36v41h148h97v-1149q0 -53 -15.5 -98t-45.5 -78.5t-75.5 -52.5t-107.5 -19q-30 0 -53 5t-46 17zM212 1370.5q0 18.5 7 35t19.5 29t29 19.5t34.5 7 t34.5 -7t29 -19.5t20 -29t7.5 -35t-7.5 -34.5t-20 -28.5t-29 -19.5t-34.5 -7t-34.5 7t-29 19.5t-19.5 28.5t-7 34.5z" />
<glyph unicode="k" horiz-adv-x="1156" d="M100 0v41q0 34 41 36q5 0 13 0.5t33.5 1.5t60.5 2v1328q-28 1 -50 2t-31 1t-15.5 0.5t-10.5 0.5q-41 2 -41 36v41h148h98v-908h47q14 0 27 4t28 19l353 335q-49 2 -51 2q-41 2 -41 36v41h168h40h108v-41q0 -34 -41 -36q-3 0 -13.5 -0.5t-25.5 -1.5t-34 -1l-365 -347 l-19 -19q-9 -9 -21 -15q16 -8 28 -20l24 -24l398 -434q19 -1 34.5 -1.5t22 -0.5t12 -0.5t9.5 -0.5q41 -2 40 -36v-41h-44h-79h-6q-14 0 -25.5 5.5t-23.5 18.5l-428 458q-17 18 -31.5 25t-44.5 7h-46v-433q28 -1 50 -2t30.5 -1t15 -0.5t11.5 -0.5q41 -2 40 -36v-41h-147h-98 h-148z" />
<glyph unicode="l" horiz-adv-x="572" d="M100 0v41q0 34 41 36q5 0 13 0.5t33.5 1.5t60.5 2v1328q-28 1 -50 2t-31 1t-15.5 0.5t-10.5 0.5q-41 2 -41 36v41h148h98v-1409q28 -1 50 -2t30.5 -1t15.5 -0.5t11 -0.5q41 -2 40 -36v-41h-147h-98h-148z" />
<glyph unicode="m" horiz-adv-x="1809" d="M105 0v41q0 34 41 36q5 0 13 0.5t33.5 1.5t60.5 2v857q-28 1 -50 2t-30.5 1t-15.5 0.5t-11 0.5q-41 2 -41 36v41h148h54q27 0 30 -26l10 -147q30 42 63.5 76.5t72 60t82 39t91.5 13.5q112 0 178.5 -65t89.5 -181q18 63 51.5 109.5t76.5 77t93.5 45t103.5 14.5 q76 0 136.5 -25t102.5 -74t64.5 -121t22.5 -164v-570q28 -1 50 -2t31 -1t16 -0.5t11 -0.5q41 -2 40 -36v-41h-148h-97v651q0 149 -64.5 227.5t-184.5 78.5q-53 0 -101.5 -19.5t-86 -57.5t-59.5 -95.5t-22 -133.5v-570q28 -1 50 -2t31 -1t15.5 -0.5t10.5 -0.5q41 -2 41 -36 v-41h-148h-97v651q0 148 -59.5 227t-173.5 79q-83 0 -153.5 -49.5t-125.5 -137.5v-689q28 -1 49.5 -2t30.5 -1t15.5 -0.5t11.5 -0.5q41 -2 40 -36v-41h-147h-98h-148z" />
<glyph unicode="n" horiz-adv-x="1288" d="M105 0v41q0 34 41 36q5 0 13 0.5t33.5 1.5t60.5 2v857q-28 1 -50 2t-30.5 1t-15.5 0.5t-11 0.5q-41 2 -41 36v41h148h54q27 0 30 -26l10 -153q70 88 162.5 141.5t205.5 53.5q84 0 148 -26.5t106 -76.5t63.5 -121t21.5 -160v-570q28 -1 50 -2t31 -1t15.5 -0.5t10.5 -0.5 q41 -2 41 -36v-41h-148h-97v651q0 143 -65.5 224.5t-200.5 81.5q-100 0 -186.5 -51.5t-153.5 -141.5v-683q28 -1 50 -2t30.5 -1t15 -0.5t11.5 -0.5q41 -2 40 -36v-41h-147h-98h-148z" />
<glyph unicode="o" horiz-adv-x="1086" d="M79 510q0 120 31 216.5t91 165.5t146.5 106t196 37t196 -37t146 -106t91 -165.5t31.5 -216.5t-31.5 -216t-91 -165t-146 -105.5t-196 -36.5t-196 36.5t-146.5 105.5t-91 165t-31 216zM179 510q0 -102 23 -184.5t68.5 -141t114 -90t159.5 -31.5t159 31.5t113.5 90t68 141 t22.5 184.5q0 101 -22.5 184t-68 142t-113.5 90.5t-159 31.5t-159.5 -31.5t-114 -90.5t-68.5 -142t-23 -184z" />
<glyph unicode="p" horiz-adv-x="1122" d="M43 -320q0 34 41 36q5 0 13 0.5t33.5 1.5t60.5 3v1217q-28 1 -50 2t-31 1t-15.5 0.5t-10.5 0.5q-41 2 -41 36v41h148h53q13 0 21.5 -5.5t9.5 -20.5l9 -157q68 92 158.5 146t203.5 54q188 0 292.5 -130t104.5 -390q0 -112 -29 -208.5t-85.5 -167.5t-139 -112t-189.5 -41 q-104 0 -180 37.5t-132 112.5v-416q28 -1 50 -2t31 -1.5t15.5 -0.5t10.5 -1q41 -2 41 -36v-40h-148h-97h-148v40zM288 223q58 -88 129.5 -123.5t162.5 -35.5q90 0 157.5 32.5t113 92.5t69 143.5t23.5 183.5q0 227 -83.5 334t-241.5 107q-101 0 -183.5 -52.5t-146.5 -146.5 v-535z" />
<glyph unicode="q" horiz-adv-x="1102" d="M83 506q0 112 29 208.5t86 167.5t139.5 112t190.5 41q138 0 408 -57v-52v-1206q28 -1 50 -2t31 -1.5t15.5 -1t10.5 -0.5q41 -2 41 -36v-40h-148h-97v27v-27h-148v40q0 34 40 36q5 0 13 0.5t33.5 1.5t60.5 3v461q-68 -90 -157 -142t-201 -52q-187 0 -292 129.5t-105 389.5 zM183 506q0 -227 84 -334t241 -107q102 0 184 52t147 145v653q-208 43 -289 43h-4q-90 0 -157.5 -32.5t-113.5 -92.5t-69 -143.5t-23 -183.5z" />
<glyph unicode="r" horiz-adv-x="892" d="M106 0v41q0 34 40 36q5 0 13 0.5t33.5 1.5t60.5 2v857q-17 1 -31.5 1.5t-24 0.5t-17.5 0.5t-13 0.5t-9 0.5t-6 0.5h-6q-41 2 -40 36v41h147h52q17 0 24.5 -7t8.5 -25l9 -215q49 124 131 194t201 70q46 0 85 -9.5t74 -28.5l-13 -67q-3 -16 -21 -17q-6 0 -17 4.5t-28 9.5 t-41.5 9t-56.5 4q-116 0 -190 -71.5t-120 -206.5v-582q28 -1 50 -2t31 -1t15.5 -0.5t10.5 -0.5q41 -2 41 -36v-41h-148h-98h-147z" />
<glyph unicode="s" horiz-adv-x="875" d="M134 760q0 54 23.5 104t67 88t106 60.5t140.5 22.5q110 0 270 -54v-244h-49q-42 0 -45 50q0 4 -2 23.5t-4.5 53t-5.5 70.5q-82 27 -162 27q-55 0 -100.5 -16t-78 -42.5t-50.5 -62t-18 -74.5q0 -48 24.5 -79.5t64.5 -54t91 -38.5q51 -17 104 -33t104 -36t90.5 -50 t64.5 -73t25 -104q0 -67 -24.5 -124t-70 -99t-112 -66.5t-151.5 -24.5q-153 0 -301 56v249h50q42 0 44 -50q0 -4 2 -23.5t5 -54t5 -73.5q83 -33 199 -33q65 0 114 18t82 49t49.5 72.5t16.5 87.5q0 51 -24.5 84.5t-64.5 57t-90.5 40t-104.5 33t-104.5 36t-90.5 49t-64.5 72 t-24.5 106.5z" />
<glyph unicode="t" horiz-adv-x="728" d="M35 938v38l174 12l24 365q1 9 8 16t18 7h46v-389h321v-73h-321v-691q0 -42 11 -72t30 -49.5t44.5 -29t54.5 -9.5q37 0 64 11t46 24t31.5 23.5t19.5 10.5q8 0 17 -10l26 -43q-39 -43 -98.5 -69t-124.5 -26q-103 0 -161 57t-58 177v696h-147q-11 0 -18 6.5t-7 17.5z" />
<glyph unicode="u" horiz-adv-x="1225" d="M41 978v41h148h97v-651q0 -143 66 -225t200 -82q100 0 186.5 51t154.5 141v685q-28 1 -50 2t-30.5 1t-15 0.5t-11.5 0.5q-41 2 -40 36v41h147h98v-938q28 -1 50 -2t31 -1t15.5 -0.5t10.5 -0.5q41 -2 41 -36v-41h-148h-54q-28 0 -29 27l-10 151q-71 -88 -163.5 -141 t-206.5 -53q-85 0 -148.5 26.5t-105.5 76.5t-63.5 121t-21.5 160v570q-28 1 -50 2t-31 1t-15.5 0.5t-10.5 0.5q-41 2 -41 36z" />
<glyph unicode="v" horiz-adv-x="1186" d="M36 978v41h74h77h206v-41q0 -34 -41 -36q-6 0 -13 -0.5t-33 -1.5t-60 -2l312 -748q10 -24 16 -45q2 -7 5 -21t5 -22q5 21 11 44q6 22 15 44l314 748q-27 1 -49.5 2t-31 1t-15 0.5t-10.5 0.5q-41 2 -41 36v41h205h74h78v-41q0 -34 -41 -36q-5 0 -10.5 -0.5t-22.5 -1 t-38 -1.5l-396 -939h-86l-397 939l-67 3q-41 2 -40 36z" />
<glyph unicode="w" horiz-adv-x="1719" d="M36 978v41h81h75h201v-41q0 -34 -41 -36q-6 0 -13 -0.5t-33 -1.5t-60 -2l239 -748q7 -23 11 -45q7 -37 8 -43q5 22 11.5 43.5t14.5 44.5l273 811q7 23 29 23h40q22 0 30 -23l269 -811q15 -46 25 -89q4 21 8 44q5 22 13 45l240 748q-27 1 -49.5 2t-31 1t-15 0.5t-10.5 0.5 q-41 2 -41 36v41h199h73h85v-41q0 -34 -40 -36q-5 0 -11 -0.5t-23 -1t-38 -1.5l-314 -939h-72q-16 0 -24 22l-279 827q-5 15 -9 31t-8 30q-3 -16 -6 -30q-4 -15 -9 -31l-283 -827q-6 -21 -24 -22h-69l-314 939q-15 1 -29 1.5t-19.5 0.5t-10.5 0.5t-9 0.5q-41 2 -40 36z" />
<glyph unicode="x" horiz-adv-x="1156" d="M98 0v41q0 34 41 36q2 0 56 2l313 442l-298 419q-61 2 -62 2q-41 2 -41 36v41h46h94h1h7h155v-41q0 -34 -41 -36q-5 0 -49 -2l258 -374q4 17 18 37l239 337q-50 2 -55 2q-41 2 -40 36v41h155h10h91h47v-41q0 -34 -41 -36q-1 0 -63 -3l-299 -413l315 -447q54 -2 56 -2 q41 -2 40 -36v-41h-94h-54h-154v41q0 34 40 36q4 0 56 2l-273 397q-5 -20 -15 -35l-257 -362q57 -2 60 -2q41 -2 41 -36v-41h-155h-54h-94z" />
<glyph unicode="y" horiz-adv-x="1183" d="M35 978v41h68h81h1h207v-41q0 -34 -41 -36q-6 0 -13 -0.5t-32.5 -1.5t-60.5 -2l319 -736q6 -15 10 -32q5 -16 9 -32q5 16 11 32q5 16 12 32l314 736q-27 1 -49 2t-30.5 1t-15 0.5t-10.5 0.5q-41 2 -41 36v41h205h75h77v-41q0 -34 -41 -36q-5 0 -10.5 -0.5t-22.5 -1 t-38 -1.5l-551 -1267q-6 -14 -15.5 -23t-28.5 -9h-69l179 398l-396 901q-61 2 -63 3q-41 2 -40 36z" />
<glyph unicode="z" horiz-adv-x="1021" d="M112 0v39q0 17 15 38l640 865h-516q-2 -35 -5 -67t-5 -50t-2 -22q-2 -50 -44 -50h-50v257v9h737v-41q0 -22 -15 -39l-638 -862h559q2 33 4.5 62.5t4.5 46.5t2 21q2 50 44 50h10h40v-257h-37h-17h-727z" />
<glyph unicode="{" horiz-adv-x="571" d="M77 610v63q36 0 65.5 11t50.5 32t32.5 49.5t11.5 61.5q0 56 -10 109.5t-21 107t-21 107t-10 111.5q0 62 19.5 115.5t56.5 92.5t90.5 61t121.5 22h56v-43q0 -11 -8.5 -17t-16.5 -6h-34q-44 0 -80.5 -15.5t-62.5 -44t-41 -69.5t-15 -91q0 -58 9.5 -113.5t20.5 -109.5 t20.5 -107.5t9.5 -108.5q0 -38 -13 -69.5t-34 -55t-48 -39.5t-57 -23q30 -6 57 -22t48 -40t34 -55t13 -69q0 -54 -9.5 -108t-20.5 -108.5t-20.5 -109.5t-9.5 -113q0 -50 15 -91t41 -69.5t62.5 -44t80.5 -15.5h34q8 0 16.5 -6t8.5 -17v-43h-56q-68 0 -121.5 22t-90.5 61.5 t-56.5 92.5t-19.5 116q0 57 10 110.5t21 107t21 107t10 109.5q0 34 -11.5 62t-32.5 49t-50.5 32t-65.5 11z" />
<glyph unicode="|" horiz-adv-x="425" d="M174 -360v1913h77v-1913h-77z" />
<glyph unicode="}" horiz-adv-x="569" d="M52 -227q0 11 8.5 17t17.5 6h34q44 0 80 15.5t62.5 44t41 69.5t14.5 91q0 57 -9 112.5t-20.5 110t-20.5 108t-9 108.5q0 38 12 69t33 55t48.5 40t56.5 22q-30 7 -57 23t-48 39.5t-33 55.5t-12 69q0 54 9 108t20.5 108t20.5 109t9 114q0 50 -14.5 91t-41 69.5t-62.5 44 t-80 15.5h-34q-9 0 -17.5 6t-8.5 17v43h57q68 0 121.5 -22t90 -61t56 -92.5t19.5 -115.5q0 -57 -9.5 -111t-21 -107.5t-21 -106.5t-9.5 -110q0 -34 11 -62t32 -49t50.5 -32t65.5 -11v-63q-36 0 -65.5 -11t-50.5 -32t-32 -49t-11 -62q0 -56 9.5 -109.5t21 -107t21 -107 t9.5 -110.5q0 -62 -19.5 -115.5t-56 -93t-90.5 -61.5t-121 -22h-57v43z" />
<glyph unicode="~" horiz-adv-x="1172" d="M135 444q0 56 16.5 104.5t47 84.5t75 56.5t102.5 20.5q53 0 108 -20t108 -44.5t103.5 -44.5t94.5 -20q38 0 69 13.5t52.5 38t33 58.5t11.5 74h80q0 -56 -16 -104.5t-47 -84t-76 -56t-102 -20.5q-52 0 -107 20t-109 44.5t-104 44.5t-94 20q-39 0 -69 -14t-51.5 -38.5 t-33.5 -58.5t-13 -74h-79z" />
<glyph unicode="&#xa1;" horiz-adv-x="452" d="M132 941q0 40 27 67t67 27q19 0 37 -7t30.5 -20t20.5 -30t8 -37t-8 -37.5t-20.5 -30.5t-30 -20.5t-37.5 -7.5q-40 0 -67 28t-27 68zM182 203q0 46 1 87t2.5 83.5t5 89.5t6.5 104h66q3 -57 6 -104t4.5 -89.5t3 -83.5t1.5 -87v-563h-96v563z" />
<glyph unicode="&#xa2;" horiz-adv-x="953" d="M92 510q0 117 31 213t89.5 165.5t144.5 108.5q64 29 141 36v2l4 68l7 142q1 13 8.5 23t21.5 10h37l-6 -134l-1 -6l-5 -103q38 -2 107 -18t118 -31l49 -15v-256h-49q-42 0 -44 49q0 4 -2.5 25t-5.5 57.5t-5 77.5q-97 35 -172 34v-1l-33 -673l-11 -219q16 -1 29 -1 q74 0 123.5 17t81.5 37.5t51 38t30 17.5q14 0 21 -10l27 -33q-24 -31 -60 -57.5t-81 -46t-97.5 -30t-110.5 -10.5h-18l-10 -214q-1 -13 -9 -22.5t-22 -9.5h-37l6 120l7 133q-50 9 -94 28q-80 35 -138 102t-90.5 164.5t-32.5 221.5zM191 510q0 -108 25.5 -190.5t71.5 -139.5 t111 -87q25 -11 52 -18l44 879q-51 -7 -93 -27q-68 -31 -114.5 -89.5t-71.5 -141.5t-25 -186z" />
<glyph unicode="&#xa3;" horiz-adv-x="1207" d="M76 647v33q0 15 9.5 25.5t27.5 10.5h169v301q0 95 26.5 177t79 142t132 94t183.5 34q78 0 137.5 -19t104 -51.5t76.5 -76.5t54 -93l-39 -23q-9 -5 -22 -5q-17 0 -31 17q-20 32 -43.5 62.5t-55 54t-75.5 37t-106 13.5q-80 0 -139.5 -26.5t-100.5 -74t-61.5 -114.5 t-20.5 -148v-301h490v-40q0 -11 -8.5 -20t-21.5 -9h-460v-311q0 -91 -37 -153t-101 -106q23 4 44.5 6t45.5 2h806v-41q0 -15 -12.5 -29.5t-32.5 -14.5h-994v67q35 13 68 33.5t58.5 50t40.5 69.5t15 93v334h-206z" />
<glyph unicode="&#xa4;" horiz-adv-x="1089" d="M114 1066l50 51l158 -158q46 37 102 58.5t121 21.5q63 0 119 -21t102 -57l158 157l50 -51l-157 -157q37 -46 58.5 -102t21.5 -121q0 -63 -21 -119t-58 -102l158 -158l-51 -51l-158 158q-46 -37 -102.5 -58t-120 -21t-119 20.5t-101.5 57.5l-159 -158l-50 51l157 157 q-37 46 -57.5 102t-20.5 121q0 63 20 119t57 102zM267 687q0 -57 22 -107.5t59.5 -87.5t88 -59t108 -22t108 22t88.5 59t60 87.5t22 107.5t-22 108t-60 89t-88.5 60t-108 22t-108 -22t-88 -60t-59.5 -89t-22 -108z" />
<glyph unicode="&#xa5;" horiz-adv-x="1144" d="M75 1449h81q27 0 40 -26l354 -681q8 -20 14.5 -38t12.5 -35q9 34 26 73l353 681q5 11 15 18.5t24 7.5h82l-433 -818h355v-60h-374v-120h374v-60h-374v-391h-98v391h-374v60h374v120h-374v60h354z" />
<glyph unicode="&#xa6;" horiz-adv-x="413" d="M170 -360v795h77v-795h-77zM170 757v796h77v-796h-77z" />
<glyph unicode="&#xa7;" horiz-adv-x="949" d="M96 731q0 79 46.5 142t152.5 101q-56 38 -91.5 88.5t-35.5 126.5q0 55 23.5 104.5t67 88t106 61t140.5 22.5q93 0 165 -27t133 -81l-22 -35q-7 -13 -22 -13q-11 0 -29 12.5t-47.5 28t-72 28.5t-103.5 13q-57 0 -104 -16t-79.5 -43t-50.5 -63t-18 -76q0 -47 25.5 -82 t67.5 -63t95.5 -51.5t109 -48t109 -53t95.5 -64t67.5 -83.5t25.5 -111q0 -85 -43 -148t-127 -99q55 -39 89.5 -89t34.5 -121q0 -67 -24 -124t-69.5 -99t-112.5 -66.5t-152 -24.5q-108 0 -185.5 34t-138.5 90l23 35q5 8 11.5 12t17.5 4q13 0 32.5 -16.5t51.5 -35.5t79 -35 t117 -16q63 0 112 17t83 48t51.5 72.5t17.5 89.5q0 52 -26.5 91t-70.5 69t-100 54.5t-114 49.5t-113.5 51.5t-99.5 62t-71 81t-27 107.5zM183 744q0 -42 20 -75t54.5 -60t79.5 -50t94 -44.5t100 -43.5t97 -48q73 33 104.5 82t31.5 111q0 46 -18.5 82t-49.5 64.5t-72.5 51 t-88 43.5t-94 41t-91.5 43q-91 -39 -129 -87.5t-38 -109.5z" />
<glyph unicode="&#xa8;" horiz-adv-x="792" d="M139 1315q0 17 7 32.5t18.5 27t26.5 18.5t31.5 7t32 -7t27 -18.5t18.5 -27t7 -32.5q0 -16 -7 -31t-18.5 -26.5t-27 -18t-32 -6.5t-31.5 6.5t-26.5 18t-18.5 26t-7 31.5zM489 1315q0 17 7 32.5t18.5 27t26.5 18.5t32 7q16 0 32.5 -7t27.5 -18.5t18 -27t7 -32.5 q0 -16 -7 -31t-18 -26.5t-27 -18t-33 -6.5t-32 6.5t-26.5 18t-18.5 26t-7 31.5z" />
<glyph unicode="&#xa9;" horiz-adv-x="1680" d="M101 725q0 101 27 196t74.5 177t115 149.5t149.5 115.5t176 74.5t196.5 26.5t196.5 -26.5t176.5 -74.5t150.5 -115.5t115.5 -149.5t74 -177t26.5 -196q0 -102 -26.5 -196.5t-74 -176.5t-115.5 -149.5t-150.5 -115.5t-176.5 -74.5t-196 -26.5q-101 0 -196 26.5t-177 74.5 t-149.5 115.5t-115 149.5t-74.5 176.5t-27 196.5zM162 725q0 -142 52.5 -266.5t145 -217.5t215.5 -146t264.5 -53t266 53t216.5 146t145.5 217.5t53.5 266.5t-53.5 266.5t-145.5 218t-216.5 147t-266 53.5t-264.5 -53.5t-215.5 -147t-145 -218t-52.5 -266.5zM401 726 q0 102 34.5 187t96 146t146.5 95t186 34q53 0 98 -8t82.5 -22.5t70.5 -35.5t65 -49l-25 -34q-7 -11 -20 -11q-10 0 -27 13.5t-47 29t-76.5 29t-116.5 13.5q-85 0 -154.5 -27t-119 -77.5t-77 -122t-26.5 -160.5q0 -92 27 -164t75 -121.5t114 -75.5t145 -26q87 0 150 21 t118 64q12 10 24 10q5 0 9 -2t6 -4l32 -32q-60 -60 -142 -96t-201 -36q-98 0 -180.5 33.5t-141.5 94t-92 145.5t-33 189z" />
<glyph unicode="&#xaa;" horiz-adv-x="730" d="M117 1005q0 37 21.5 70t69 58t123.5 41t183 18v52q0 78 -35 118.5t-109 40.5q-44 0 -74.5 -11.5t-51 -24t-34 -24t-25.5 -11.5q-15 0 -22 14l-12 23q49 49 103 72t123 23q103 0 156.5 -59.5t53.5 -160.5v-385h-33q-11 0 -16.5 4t-10.5 16l-10 69q-26 -24 -51 -42 t-52 -30.5t-58 -19t-68 -6.5q-34 0 -64.5 9t-54.5 28t-38 48.5t-14 69.5zM187 1009q0 -28 10 -48t27 -33t38 -18.5t45 -5.5q34 0 62.5 7.5t54 20t47.5 30t43 37.5v142q-172 -5 -249.5 -40t-77.5 -92z" />
<glyph unicode="&#xab;" horiz-adv-x="776" d="M103 525v14l247 387l31 -16q16 -10 16 -25q0 -12 -7 -24l-187 -300q-13 -20 -23 -30q10 -8 23 -28l187 -301q7 -11 7 -24q0 -15 -16 -25l-31 -16zM365 525v14l246 387l31 -16q16 -10 16 -25q0 -12 -7 -24l-187 -300q-13 -20 -23 -30q10 -8 23 -28l187 -301q7 -11 7 -24 q0 -15 -16 -25l-31 -16z" />
<glyph unicode="&#xac;" horiz-adv-x="1127" d="M127 649v75h849v-377h-84v302h-765z" />
<glyph unicode="&#xad;" horiz-adv-x="758" d="M142 566v83h476v-83h-476z" />
<glyph unicode="&#xae;" horiz-adv-x="1680" d="M101 725q0 101 27 196t74.5 177t115 149.5t149.5 115.5t176 74.5t196.5 26.5t196.5 -26.5t176.5 -74.5t150.5 -115.5t115.5 -149.5t74 -177t26.5 -196q0 -102 -26.5 -196.5t-74 -176.5t-115.5 -149.5t-150.5 -115.5t-176.5 -74.5t-196 -26.5q-101 0 -196 26.5t-177 74.5 t-149.5 115.5t-115 149.5t-74.5 176.5t-27 196.5zM162 725q0 -142 52.5 -266.5t145 -217.5t215.5 -146t264.5 -53t266 53t216.5 146t145.5 217.5t53.5 266.5t-53.5 266.5t-145.5 218t-216.5 147t-266 53.5t-264.5 -53.5t-215.5 -147t-145 -218t-52.5 -266.5zM566 272v907 h253q157 0 237.5 -59t80.5 -180q0 -102 -66 -167.5t-186 -82.5q12 -7 21.5 -16.5t19.5 -24.5l292 -377h-82q-10 0 -18 3.5t-14 13.5l-277 359q-8 11 -20.5 18t-40.5 7h-113v-401h-87zM653 738h152q124 0 185 50t61 143q0 94 -55.5 137t-176.5 43h-166v-373z" />
<glyph unicode="&#xaf;" horiz-adv-x="830" d="M136 1282v67h558v-67h-558z" />
<glyph unicode="&#xb0;" horiz-adv-x="841" d="M110 1161.5q0 63.5 24 119t65.5 97t97.5 65t120.5 23.5t121 -23.5t98 -65t65.5 -97t24 -119t-24 -119t-65.5 -97t-98 -65.5t-121 -24t-120.5 24t-97.5 65.5t-65.5 97t-24 119zM182 1161q0 -49 18.5 -92t50.5 -74.5t75 -50t92 -18.5t92 18.5t74 50t49.5 74.5t18.5 92 t-18.5 92t-49.5 75.5t-74 51t-92 18.5t-92 -18.5t-75 -51t-50.5 -75.5t-18.5 -92z" />
<glyph unicode="&#xb1;" horiz-adv-x="1168" d="M103 82v75h962v-75h-962zM103 690v75h441v416h80v-416h441v-75h-441v-411h-80v411h-441z" />
<glyph unicode="&#xb2;" horiz-adv-x="704" d="M99 922v24q0 8 3 16.5t12 15.5l240 243q29 29 54 57q25 29 44 58t30 59.5t11 63.5q0 36 -12 62.5t-32 44t-46.5 26.5t-55.5 9q-63 0 -100 -36.5t-58 -93.5q-7 -19 -27 -19q-2 0 -8 1t-10 1l-30 5q14 99 77.5 151.5t158.5 52.5q45 0 85 -13.5t69.5 -38.5t46 -62.5 t16.5 -86.5q0 -41 -12.5 -76.5t-34 -67.5t-50.5 -62.5t-59 -61.5l-212 -215q19 5 39 7.5t41 2.5h240q1 10 2 21.5t1.5 18t1.5 9.5q2 43 38 43h23v-116v-43h-71h-415z" />
<glyph unicode="&#xb3;" horiz-adv-x="689" d="M89 1102l31 13q4 2 7.5 3t8.5 1q8 0 15.5 -4t10.5 -12l3 -8q4 -12 13.5 -33t28 -39.5t49 -33t76.5 -14.5q42 0 73.5 13.5t52.5 35.5t32 48.5t11 51.5q0 34 -11 60.5t-34.5 45.5t-61.5 29.5t-92 10.5v50q93 2 138.5 40.5t45.5 102.5q0 35 -11 60.5t-31 42.5t-46 25.5 t-56 7.5q-65 0 -102 -33t-56 -93q-6 -20 -24 -21q-7 0 -23 3l-25 4q14 98 77 150.5t156 52.5q45 0 84 -13t67 -37t44.5 -58t16.5 -78q0 -68 -37 -112.5t-98 -64.5q75 -17 114 -60t39 -111q0 -49 -18.5 -88.5t-51.5 -67.5t-77 -43.5t-93 -15.5q-61 0 -103 15.5t-70 41.5 t-45 60.5t-28 71.5z" />
<glyph unicode="&#xb4;" horiz-adv-x="550" d="M119 1189l161 244q11 18 23 25t37 7h96l-221 -259q-8 -10 -17 -13.5t-21 -3.5h-58z" />
<glyph unicode="&#xb5;" horiz-adv-x="1127" d="M169 -317v1336h98v-651q0 -143 65.5 -225t199.5 -82q99 0 185.5 51t154.5 141v766h99v-1019h-55q-29 0 -29 27l-9 151q-72 -90 -159 -137t-192 -47q-100 0 -167.5 39.5t-105.5 112.5q5 -44 6.5 -89t1.5 -82v-335h-49q-20 0 -32 11t-12 32z" />
<glyph unicode="&#xb6;" horiz-adv-x="1340" d="M84 1089q0 82 31 148.5t89.5 113.5t142.5 72.5t190 25.5h741v-84h-230v-1560h-87v1560h-336v-1560h-88v911q-105 0 -189.5 28.5t-143 78.5t-89.5 118.5t-31 147.5z" />
<glyph unicode="&#xb7;" horiz-adv-x="486" d="M141 606q0 22 8.5 41.5t22 33.5t32 22.5t39.5 8.5q22 0 41 -8.5t33.5 -22.5t22.5 -33.5t8 -41.5q0 -20 -8 -39t-22.5 -33t-34 -22t-40.5 -8q-20 0 -39 8t-32.5 22t-22 33t-8.5 39z" />
<glyph unicode="&#xb8;" horiz-adv-x="587" d="M123 -321l10 29q7 12 17 12q5 0 13.5 -5.5t22.5 -12t34.5 -12t49.5 -5.5q52 0 81.5 22.5t29.5 61.5q0 26 -13.5 42.5t-38 27.5t-57.5 17.5t-73 11.5l43 137h62l-31 -98q91 -16 139 -47t48 -91q0 -31 -14 -55.5t-39 -41.5t-60 -26.5t-76 -9.5q-42 0 -81.5 12t-66.5 31z " />
<glyph unicode="&#xb9;" horiz-adv-x="596" d="M91 1468l216 189h60v-685h150v-50h-387v50h162v553l4 38l-148 -129q-8 -6 -16 -7q-11 0 -18 10z" />
<glyph unicode="&#xba;" horiz-adv-x="822" d="M116 1155q0 71 20 127.5t58 97t92.5 62t124.5 21.5q68 0 122 -21.5t92 -62t57.5 -97t19.5 -127.5t-19.5 -127.5t-57.5 -97t-92.5 -62t-121.5 -21.5q-70 0 -124.5 21.5t-92.5 62t-58 97t-20 127.5zM194 1155q0 -117 53.5 -183t163.5 -66q106 0 160 66t54 183 q0 116 -54 182.5t-160 66.5q-110 0 -163.5 -66.5t-53.5 -182.5z" />
<glyph unicode="&#xbb;" horiz-adv-x="780" d="M123 179q0 11 7 23l187 301q6 11 12 17.5t11 10.5q-5 5 -10.5 12t-12.5 18l-187 300q-7 11 -7 24q0 16 17 25l31 16l247 -387v-14l-247 -388l-31 16q-17 9 -17 26zM384 179q0 11 7 23l188 301q6 11 11.5 17.5t10.5 10.5q-5 5 -10.5 12t-11.5 18l-188 300q-7 11 -7 24 q0 16 17 25l31 16l247 -387v-14l-247 -388l-31 16q-17 9 -17 26z" />
<glyph unicode="&#xbc;" horiz-adv-x="1404" d="M65 1265l216 188h59v-685h150v-50h-387v50h162v553l4 38l-147 -129q-8 -6 -17 -6q-11 0 -18 9zM248 0l819 1413q10 17 23 26.5t33 9.5h43l-821 -1417q-11 -18 -25 -25t-31 -7h-41zM796 249l360 483h69v-479h129v-37q0 -16 -18 -16h-111v-200h-65v200h-333q-24 0 -25 16z M867 253h293v343q0 24 3 53z" />
<glyph unicode="&#xbd;" horiz-adv-x="1410" d="M65 1265l216 188h59v-685h150v-50h-387v50h162v553l4 38l-147 -129q-8 -6 -17 -6q-11 0 -18 9zM200 0l819 1413q10 17 23 26.5t33 9.5h43l-821 -1417q-11 -18 -25 -25t-31 -7h-41zM829 0v25q0 8 3.5 16t11.5 15l240 243q29 29 54 57q25 29 44 58t30 60t11 64 q0 36 -12 62.5t-32 43.5t-46.5 26t-55.5 9q-63 0 -100 -36.5t-57 -92.5q-7 -19 -28 -20q-2 0 -8 1t-10 1l-30 6q14 99 77.5 151t158.5 52q45 0 85 -13t69.5 -38.5t46 -62.5t16.5 -87q0 -41 -12.5 -76t-34 -67.5t-50.5 -63t-59 -60.5l-212 -216q19 5 39 8t41 3h240 q1 10 2 21.5t2 17.5t1 9q2 43 38 43h23v-116v-43h-71h-415z" />
<glyph unicode="&#xbe;" horiz-adv-x="1471" d="M79 898l31 13q4 2 7.5 3t8.5 1q8 0 15 -4t11 -12l3 -8q4 -12 13.5 -32.5t28 -39.5t48.5 -33.5t77 -14.5q42 0 73.5 14t52.5 35.5t31.5 48t10.5 52.5q0 34 -10.5 60.5t-34 45t-61.5 29t-92 10.5v50q93 2 138.5 40.5t45.5 103.5q0 35 -11 60.5t-31 42t-46.5 25t-55.5 8.5 q-63 0 -101 -36.5t-57 -90.5q-7 -20 -24 -21h-4q-2 0 -6.5 1t-13.5 2t-25 4q14 98 77.5 150.5t156.5 52.5q45 0 84 -12.5t67 -37t44.5 -58.5t16.5 -78q0 -68 -37 -112.5t-98 -63.5q75 -17 114 -60.5t39 -110.5q0 -49 -19 -88.5t-51.5 -68t-76.5 -43.5t-93 -15q-61 0 -103 15 t-70 41.5t-45 60.5t-28 71zM323 0l819 1413q10 17 23 26.5t33 9.5h43l-821 -1417q-11 -18 -25 -25t-31 -7h-41zM862 249l361 483h68v-479h129v-37q0 -16 -17 -16h-112v-200h-64v200h-333q-24 0 -26 16zM934 253h293v343q0 24 3 53z" />
<glyph unicode="&#xbf;" horiz-adv-x="849" d="M91 -65q0 78 24.5 133t61 94.5t79.5 68.5t81 54.5t64 52.5t28 62l11 167h67l6 -174v-5q0 -43 -24.5 -73.5t-61 -57.5t-79.5 -54t-79.5 -62.5t-61 -83t-24.5 -114.5q0 -55 21.5 -99t58.5 -74t85 -46t101 -16q71 0 119 18t81 40t51.5 40t28.5 18q9 0 14 -3.5t9 -9.5l25 -40 q-28 -28 -62.5 -53.5t-76 -45.5t-90.5 -32t-107 -12q-71 0 -134.5 21t-111.5 60.5t-76 96.5t-28 129zM381 940q0 19 7 36.5t20 30.5t30 20.5t37 7.5q19 0 36.5 -7.5t30.5 -20.5t20.5 -30.5t7.5 -36.5q0 -20 -7.5 -37t-20.5 -30t-30 -20t-37 -7q-40 0 -67 27t-27 67z" />
<glyph unicode="&#xc0;" d="M77 0v47q0 37 39 41l66 7l555 1354h104l554 -1354l66 -7q40 -4 40 -41v-47h-67h-42h-39h-13h-193v47q0 39 47 42q4 0 13 1t29 2t52 3l-144 354l-10 26h-691l-10 -26l-143 -354q32 -2 52 -3t28.5 -2t12.5 -1q47 -2 47 -42v-47h-192h-14h-39h-41h-67zM475 553h628l-285 706 q-7 17 -15 39q-7 23 -14 47q-7 -24 -14 -47q-8 -22 -15 -41zM487 1812h116q25 0 36.5 -4.5t25.5 -17.5l233 -211h-72q-12 0 -20.5 2t-18.5 10z" />
<glyph unicode="&#xc1;" d="M77 0v47q0 37 39 41l66 7l555 1354h104l554 -1354l66 -7q40 -4 40 -41v-47h-67h-42h-39h-13h-193v47q0 39 47 42q4 0 13 1t29 2t52 3l-144 354l-10 26h-691l-10 -26l-143 -354q32 -2 52 -3t28.5 -2t12.5 -1q47 -2 47 -42v-47h-192h-14h-39h-41h-67zM475 553h628l-285 706 q-7 17 -15 39q-7 23 -14 47q-7 -24 -14 -47q-8 -22 -15 -41zM673 1579l233 211q14 13 26.5 17.5t36.5 4.5h115l-299 -221q-10 -7 -19 -9.5t-21 -2.5h-72z" />
<glyph unicode="&#xc2;" d="M77 0v47q0 37 39 41l66 7l555 1354h104l554 -1354l66 -7q40 -4 40 -41v-47h-67h-42h-39h-13h-193v47q0 39 47 42q4 0 13 1t29 2t52 3l-144 354l-10 26h-691l-10 -26l-143 -354q32 -2 52 -3t28.5 -2t12.5 -1q47 -2 47 -42v-47h-192h-14h-39h-41h-67zM475 553h628l-285 706 q-7 17 -15 39q-7 23 -14 47q-7 -24 -14 -47q-8 -22 -15 -41zM501 1579l241 204h92l241 -204h-75q-8 0 -18 2.5t-17 7.5l-160 126q-8 6 -11 9l-5 6l-5 -6q-4 -3 -13 -9l-160 -126q-7 -5 -16.5 -7.5t-17.5 -2.5h-76z" />
<glyph unicode="&#xc3;" d="M77 0v47q0 37 39 41l66 7l555 1354h104l554 -1354l66 -7q40 -4 40 -41v-47h-67h-42h-39h-13h-193v47q0 39 47 42q4 0 13 1t29 2t52 3l-144 354l-10 26h-691l-10 -26l-143 -354q32 -2 52 -3t28.5 -2t12.5 -1q47 -2 47 -42v-47h-192h-14h-39h-41h-67zM475 553h628l-285 706 q-7 17 -15 39q-7 23 -14 47q-7 -24 -14 -47q-8 -22 -15 -41zM532 1590q0 35 9.5 66t28 54t45 35.5t61.5 12.5t66 -16.5t59.5 -35t55 -35t54.5 -16.5q43 0 65.5 28t23.5 72h55q0 -36 -9 -66t-26.5 -53t-44.5 -36t-62 -13q-34 0 -64.5 16.5t-59.5 35.5t-56 35.5t-55 16.5 q-43 0 -65 -29t-24 -72h-57z" />
<glyph unicode="&#xc4;" d="M77 0v47q0 37 39 41l66 7l555 1354h104l554 -1354l66 -7q40 -4 40 -41v-47h-67h-42h-39h-13h-193v47q0 39 47 42q4 0 13 1t29 2t52 3l-144 354l-10 26h-691l-10 -26l-143 -354q32 -2 52 -3t28.5 -2t12.5 -1q47 -2 47 -42v-47h-192h-14h-39h-41h-67zM475 553h628l-285 706 q-7 17 -15 39q-7 23 -14 47q-7 -24 -14 -47q-8 -22 -15 -41zM492 1705q0 16 6.5 31.5t18 27.5t26 18.5t31 6.5t32 -6.5t26.5 -18.5t18.5 -27.5t7.5 -31.5t-7.5 -31t-18.5 -26t-26.5 -17.5t-32 -6.5t-31 6.5t-26 17.5t-18 26t-6.5 31zM918 1705q0 34 24.5 59t58.5 25 q16 0 31 -6.5t26.5 -18.5t18.5 -27.5t7 -31.5t-7 -31t-18.5 -26t-26.5 -17.5t-31 -6.5q-17 0 -32 6.5t-26.5 17.5t-18 26t-6.5 31z" />
<glyph unicode="&#xc5;" d="M77 0v47q0 37 39 41l66 7l555 1354h104l554 -1354l66 -7q40 -4 40 -41v-47h-67h-42h-39h-13h-193v47q0 39 47 42q4 0 13 1t29 2t52 3l-144 354l-10 26h-691l-10 -26l-143 -354q32 -2 52 -3t28.5 -2t12.5 -1q47 -2 47 -42v-47h-192h-14h-39h-41h-67zM475 553h628l-285 706 q-7 17 -15 39q-7 23 -14 47q-7 -24 -14 -47q-8 -22 -15 -41zM617 1669q0 35 13.5 65t37 51.5t54.5 34t66 12.5t66.5 -12.5t54.5 -34t37 -51.5t14 -65q0 -36 -14 -65.5t-37 -51t-54.5 -33.5t-66.5 -12t-66 12t-54.5 33.5t-37 51t-13.5 65.5zM671 1669q0 -51 33 -84t85 -33 q51 0 84 33t33 84t-33 84t-84 33q-52 0 -85 -33t-33 -84z" />
<glyph unicode="&#xc6;" horiz-adv-x="2043" d="M78 0v47q0 37 39 41l65 7l704 1274q-21 1 -40 1.5t-29 1t-14 0.5q-41 2 -41 36v41h168h5h978v-87v-213h-49q-42 0 -45 50q-1 28 -8 163h-732l73 -586h575v-85h-563l77 -604h570q1 26 3.5 71.5t3.5 66t1 25.5q2 50 45 50h49v-213v-87h-738h-21h-151v41q0 34 40 36 q4 0 16 0.5t35 1t49 1.5l-47 369h-610l-195 -354q31 -2 51.5 -3t29 -2t12.5 -1q47 -2 47 -42v-47h-192h-29h-24h-56h-52zM529 526h557l-108 843q-8 -27 -18 -50.5t-22 -46.5z" />
<glyph unicode="&#xc7;" horiz-adv-x="1317" d="M75 725q0 165 51.5 301t145.5 234t224.5 151.5t287.5 53.5q203 0 463 -104v-326h-50q-42 0 -44 49q-1 24 -11 222q-160 70 -358 69q-132 0 -242.5 -45.5t-190.5 -130t-124.5 -205t-44.5 -269.5q0 -154 44 -274.5t122 -204t184 -128t230 -44.5q78 0 139 10t112 30.5 t95 50.5t87 69q5 4 9.5 7t10.5 3q11 0 18 -7l41 -44q-45 -48 -98.5 -86.5t-116.5 -66t-138 -42.5q-69 -14 -154 -14l-2 -8l-22 -69q91 -16 139 -47t48 -91q0 -31 -14 -55.5t-39 -41.5t-60 -26.5t-76 -9.5q-42 0 -81.5 12t-66.5 32l10 28q6 12 17 12q5 0 13.5 -5.5t22.5 -12 t34.5 -12t49.5 -5.5q52 0 81.5 22.5t29.5 61.5q0 26 -13.5 42.5t-38 27.5t-57.5 18q-34 6 -73 11l36 117q-122 7 -225 51q-125 53 -215 150t-140 234t-50 305z" />
<glyph unicode="&#xc8;" horiz-adv-x="1273" d="M102 0v41q0 34 41 36q4 0 19 0.5t45.5 1.5t67.5 2v1287q-37 1 -67.5 2t-45.5 1.5t-19 0.5q-41 2 -41 36v41h173h868v-87v-213h-50q-42 0 -44 50q-1 28 -8 163h-661v-586h577v-85h-577v-604h661q1 26 3.5 71.5t3.5 66t1 25.5q2 50 44 50h50v-213v-87h-868h-173zM417 1812 h116q25 0 36.5 -4.5t25.5 -17.5l234 -211h-73q-12 0 -20 2t-19 10z" />
<glyph unicode="&#xc9;" horiz-adv-x="1273" d="M102 0v41q0 34 41 36q4 0 19 0.5t45.5 1.5t67.5 2v1287q-37 1 -67.5 2t-45.5 1.5t-19 0.5q-41 2 -41 36v41h173h868v-87v-213h-50q-42 0 -44 50q-1 28 -8 163h-661v-586h577v-85h-577v-604h661q1 26 3.5 71.5t3.5 66t1 25.5q2 50 44 50h50v-213v-87h-868h-173zM604 1579 l232 211q14 13 26.5 17.5t37.5 4.5h114l-299 -221q-10 -7 -18.5 -9.5t-21.5 -2.5h-71z" />
<glyph unicode="&#xca;" horiz-adv-x="1273" d="M102 0v41q0 34 41 36q4 0 19 0.5t45.5 1.5t67.5 2v1287q-37 1 -67.5 2t-45.5 1.5t-19 0.5q-41 2 -41 36v41h173h868v-87v-213h-50q-42 0 -44 50q-1 28 -8 163h-661v-586h577v-85h-577v-604h661q1 26 3.5 71.5t3.5 66t1 25.5q2 50 44 50h50v-213v-87h-868h-173zM432 1579 l240 204h92l241 -204h-75q-8 0 -17.5 2.5t-17.5 7.5l-159 126l-12 9l-5 6l-5 -6l-12 -9l-161 -126q-7 -5 -16 -7.5t-18 -2.5h-75z" />
<glyph unicode="&#xcb;" horiz-adv-x="1273" d="M102 0v41q0 34 41 36q4 0 19 0.5t45.5 1.5t67.5 2v1287q-37 1 -67.5 2t-45.5 1.5t-19 0.5q-41 2 -41 36v41h173h868v-87v-213h-50q-42 0 -44 50q-1 28 -8 163h-661v-586h577v-85h-577v-604h661q1 26 3.5 71.5t3.5 66t1 25.5q2 50 44 50h50v-213v-87h-868h-173zM422 1705 q0 16 7 31.5t18 27.5t26 18.5t31.5 6.5t31.5 -6.5t26.5 -18.5t18.5 -27.5t7 -31.5t-7 -31t-18.5 -26t-26.5 -17.5t-31.5 -6.5t-31.5 6.5t-26 17.5t-18 26t-7 31zM848 1705q0 34 25 59t58 25q16 0 31 -6.5t27 -18.5t18.5 -27.5t6.5 -31.5t-6.5 -31t-18.5 -26t-26.5 -17.5 t-31.5 -6.5t-32 6.5t-26 17.5t-18 26t-7 31z" />
<glyph unicode="&#xcc;" horiz-adv-x="627" d="M10 1812h116q25 0 36.5 -4.5t25.5 -17.5l234 -211h-73q-12 0 -20 2t-19 10zM83 0v41q0 34 41 36q4 0 19 0.5t45.5 1.5t67.5 2v1287q-37 1 -67 2l-45 2h-20q-41 2 -41 36v41h173h105h173v-41q0 -34 -41 -36q-4 0 -19 -0.5t-45.5 -1.5t-67.5 -2v-1287q37 -1 67.5 -2 t45.5 -1.5t19 -0.5q41 -2 41 -36v-41h-173h-105h-173z" />
<glyph unicode="&#xcd;" horiz-adv-x="635" d="M102 0v41q0 34 41 36q4 0 19 0.5t45.5 1.5t67.5 2v1287q-37 1 -67.5 2t-45.5 1.5t-19 0.5q-41 2 -41 36v41h173h105h173v-41q0 -34 -41 -36q-4 0 -19 -0.5t-45.5 -1.5t-67.5 -2v-1287q37 -1 67.5 -2t45.5 -1.5t19 -0.5q41 -2 41 -36v-41h-173h-105h-173zM216 1579 l232 211q14 13 26.5 17.5t36.5 4.5h115l-299 -221q-10 -7 -19 -9.5t-21 -2.5h-71z" />
<glyph unicode="&#xce;" horiz-adv-x="609" d="M20 1579l241 204h92l241 -204h-75q-8 0 -17.5 2.5t-17.5 7.5l-159 126l-12 9l-5 6l-6 -6q-3 -3 -11 -9l-161 -126q-7 -5 -16.5 -7.5t-17.5 -2.5h-76zM79 0v41q0 34 41 36q4 0 19 0.5t45.5 1.5t67.5 2v1287q-37 1 -67.5 2t-45.5 1.5t-19 0.5q-41 2 -41 36v41h173h105h173 v-41q0 -34 -41 -36q-4 0 -19 -0.5t-45.5 -1.5t-67.5 -2v-1287q37 -1 67.5 -2t45.5 -1.5t19 -0.5q41 -2 41 -36v-41h-173h-105h-173z" />
<glyph unicode="&#xcf;" horiz-adv-x="616" d="M13 1705q0 16 7 31.5t18 27.5t26 18.5t31.5 6.5t31.5 -6.5t26.5 -18.5t18.5 -27.5t7 -31.5t-7 -31t-18.5 -26t-26.5 -17.5t-31.5 -6.5t-31.5 6.5t-26 17.5t-18 26t-7 31zM81 0v41q0 34 41 36q4 0 19 0.5t45.5 1.5t67.5 2v1287q-37 1 -67.5 2t-45 1.5t-19.5 0.5 q-41 2 -41 36v41h173h105h173v-41q0 -34 -41 -36q-4 0 -19 -0.5t-45.5 -1.5t-67.5 -2v-1287q37 -1 67.5 -2t45.5 -1.5t19 -0.5q41 -2 41 -36v-41h-173h-105h-173zM439 1705q0 34 24.5 59t58.5 25q16 0 31 -6.5t27 -18.5t18.5 -27.5t6.5 -31.5t-6.5 -31t-18.5 -26 t-26.5 -17.5t-31.5 -6.5t-32 6.5t-26 17.5t-18 26t-7 31z" />
<glyph unicode="&#xd0;" horiz-adv-x="1556" d="M55 701v66h221v601q-37 1 -67.5 2t-45 1.5t-19.5 0.5q-41 2 -41 36v41h173h503q155 0 281.5 -50t218 -144.5t141.5 -228.5t50 -301q0 -168 -50 -302t-141.5 -228.5t-218.5 -144.5t-281 -50h-503h-173v41q0 34 41 36q4 0 19 0.5t45.5 1.5t67.5 2v620h-221zM381 85h398 q131 0 238.5 43t184 125t118.5 200.5t42 271.5q0 152 -42 270.5t-118.5 200.5t-184 125t-238.5 43h-398v-597h414v-66h-414v-616z" />
<glyph unicode="&#xd1;" horiz-adv-x="1614" d="M102 0v41q0 34 41 36q4 0 19 0.5t45.5 1.5t67.5 2v1287q-37 1 -67.5 2t-45.5 1.5t-19 0.5q-41 2 -41 36v41h173h51q14 0 22.5 -3.5t17.5 -16.5l938 -1255q-3 31 -3 59v1135q-37 1 -68.5 2t-47.5 1.5t-20 0.5q-41 2 -41 36v41h177h92h173v-41q0 -34 -41 -36 q-4 0 -19.5 -0.5t-45.5 -1.5t-67 -2v-1368h-50q-24 0 -38 21l-942 1257q3 -31 3 -58v-1139q37 -1 68.5 -2t47.5 -1.5t20 -0.5q41 -2 41 -36v-41h-177h-91h-173zM615 1590q0 35 9.5 66t28 54t45 35.5t61.5 12.5t66 -16.5t59.5 -35t55 -35t54.5 -16.5q43 0 65.5 28t23.5 72h55 q0 -36 -9 -66t-26.5 -53t-44.5 -36t-62 -13q-34 0 -64.5 16.5t-59.5 35.5t-56 35.5t-55 16.5q-43 0 -65 -29t-24 -72h-57z" />
<glyph unicode="&#xd2;" horiz-adv-x="1542" d="M75 725q0 167 50.5 303.5t141.5 233.5t218 150t280 53q155 0 282 -52.5t218 -150t141 -234t50 -303.5q0 -168 -50 -304.5t-141 -233.5t-218 -149.5t-282 -52.5q-153 0 -280 52.5t-218 149.5t-141.5 233.5t-50.5 304.5zM182 725q0 -153 42.5 -273t120 -204t184.5 -128 t236 -44q131 0 238.5 44t184 128t118.5 204t42 273q0 152 -42 272.5t-118.5 204.5t-184 128.5t-238.5 44.5q-129 0 -236 -44.5t-184.5 -128.5t-120 -204.5t-42.5 -272.5zM466 1812h116q25 0 36.5 -4.5t25.5 -17.5l234 -211h-73q-12 0 -20.5 2t-18.5 10z" />
<glyph unicode="&#xd3;" horiz-adv-x="1542" d="M75 725q0 167 50.5 303.5t141.5 233.5t218 150t280 53q155 0 282 -52.5t218 -150t141 -234t50 -303.5q0 -168 -50 -304.5t-141 -233.5t-218 -149.5t-282 -52.5q-153 0 -280 52.5t-218 149.5t-141.5 233.5t-50.5 304.5zM182 725q0 -153 42.5 -273t120 -204t184.5 -128 t236 -44q131 0 238.5 44t184 128t118.5 204t42 273q0 152 -42 272.5t-118.5 204.5t-184 128.5t-238.5 44.5q-129 0 -236 -44.5t-184.5 -128.5t-120 -204.5t-42.5 -272.5zM652 1579l233 211q14 13 26.5 17.5t36.5 4.5h115l-299 -221q-10 -7 -19 -9.5t-21 -2.5h-72z" />
<glyph unicode="&#xd4;" horiz-adv-x="1542" d="M75 725q0 167 50.5 303.5t141.5 233.5t218 150t280 53q155 0 282 -52.5t218 -150t141 -234t50 -303.5q0 -168 -50 -304.5t-141 -233.5t-218 -149.5t-282 -52.5q-153 0 -280 52.5t-218 149.5t-141.5 233.5t-50.5 304.5zM182 725q0 -153 42.5 -273t120 -204t184.5 -128 t236 -44q131 0 238.5 44t184 128t118.5 204t42 273q0 152 -42 272.5t-118.5 204.5t-184 128.5t-238.5 44.5q-129 0 -236 -44.5t-184.5 -128.5t-120 -204.5t-42.5 -272.5zM480 1579l241 204h92l241 -204h-75q-8 0 -18 2.5t-17 7.5l-160 126q-8 6 -11 9l-5 6l-6 -6 q-3 -3 -11 -9l-161 -126q-7 -5 -16.5 -7.5t-17.5 -2.5h-76z" />
<glyph unicode="&#xd5;" horiz-adv-x="1542" d="M75 725q0 167 50.5 303.5t141.5 233.5t218 150t280 53q155 0 282 -52.5t218 -150t141 -234t50 -303.5q0 -168 -50 -304.5t-141 -233.5t-218 -149.5t-282 -52.5q-153 0 -280 52.5t-218 149.5t-141.5 233.5t-50.5 304.5zM182 725q0 -153 42.5 -273t120 -204t184.5 -128 t236 -44q131 0 238.5 44t184 128t118.5 204t42 273q0 152 -42 272.5t-118.5 204.5t-184 128.5t-238.5 44.5q-129 0 -236 -44.5t-184.5 -128.5t-120 -204.5t-42.5 -272.5zM511 1590q0 35 9.5 66t28 54t45.5 35.5t61.5 12.5t65.5 -16.5t59.5 -35t55 -35t54.5 -16.5 q43 0 65.5 28t23.5 72h55q0 -36 -9 -66t-26.5 -53t-44.5 -36t-62 -13q-34 0 -64.5 16.5t-59.5 35.5t-56 35.5t-55 16.5q-43 0 -65 -29t-24 -72h-57z" />
<glyph unicode="&#xd6;" horiz-adv-x="1542" d="M75 725q0 167 50.5 303.5t141.5 233.5t218 150t280 53q155 0 282 -52.5t218 -150t141 -234t50 -303.5q0 -168 -50 -304.5t-141 -233.5t-218 -149.5t-282 -52.5q-153 0 -280 52.5t-218 149.5t-141.5 233.5t-50.5 304.5zM182 725q0 -153 42.5 -273t120 -204t184.5 -128 t236 -44q131 0 238.5 44t184 128t118.5 204t42 273q0 152 -42 272.5t-118.5 204.5t-184 128.5t-238.5 44.5q-129 0 -236 -44.5t-184.5 -128.5t-120 -204.5t-42.5 -272.5zM471 1705q0 16 6.5 31.5t18 27.5t26.5 18.5t31 6.5t31.5 -6.5t27 -18.5t18.5 -27.5t7 -31.5t-7 -31 t-18.5 -26t-27 -17.5t-31.5 -6.5t-31 6.5t-26.5 17.5t-18 26t-6.5 31zM897 1705q0 34 24.5 59t58.5 25q16 0 31 -6.5t27 -18.5t18.5 -27.5t6.5 -31.5t-6.5 -31t-18.5 -26t-27 -17.5t-31 -6.5q-17 0 -32 6.5t-26.5 17.5t-18 26t-6.5 31z" />
<glyph unicode="&#xd7;" horiz-adv-x="980" d="M51 303l382 383l-377 377l55 55l376 -378l375 376l54 -55l-375 -375l381 -381l-53 -53l-382 381l-383 -383z" />
<glyph unicode="&#xd8;" horiz-adv-x="1547" d="M77 725q0 167 50.5 303.5t141.5 233.5t218 150t280 53q124 0 230.5 -34t191.5 -99l114 153q12 16 21 23.5t30 7.5h56l-169 -228q103 -98 160 -240.5t57 -322.5q0 -168 -50 -304.5t-141 -233.5t-218 -149.5t-282 -52.5q-118 0 -220 31t-185 89l-134 -180 q-13 -17 -29.5 -25t-33.5 -8h-45l189 255q-111 98 -171.5 244.5t-60.5 333.5zM184 725q0 -164 48.5 -289.5t135.5 -209.5l764 1029q-73 58 -164.5 89t-200.5 31q-129 0 -236 -44.5t-184.5 -128.5t-120 -204.5t-42.5 -272.5zM419 182q71 -52 158.5 -79t189.5 -27 q131 0 238.5 44t184 128t118.5 204t42 273q0 156 -44 277.5t-124 205.5z" />
<glyph unicode="&#xd9;" horiz-adv-x="1538" d="M48 1408v41h173h105h198v-41q0 -34 -40 -36q-4 0 -26 -0.5t-58.5 -1.5t-73.5 -2v-814q0 -101 30 -188.5t87 -152.5t139.5 -101.5t187 -36.5t187 36t139.5 100.5t87.5 152.5t30.5 189v815q-37 1 -73.5 2t-58.5 1.5t-26 0.5q-41 2 -40 36v41h198h104h173v-41q0 -34 -41 -36 q-5 0 -19.5 -0.5t-45 -1.5t-67.5 -2v-815q0 -120 -37.5 -224t-109 -181t-173.5 -121t-228.5 -44t-228.5 44t-173.5 121t-109 181t-37.5 224v815q-37 2 -67.5 2.5t-45.5 1t-19 0.5q-41 2 -41 36zM468 1812h116q25 0 36.5 -4.5t26.5 -17.5l233 -211h-73q-12 0 -20 2t-19 10z " />
<glyph unicode="&#xda;" horiz-adv-x="1538" d="M48 1408v41h173h105h198v-41q0 -34 -40 -36q-4 0 -26 -0.5t-58.5 -1.5t-73.5 -2v-814q0 -101 30 -188.5t87 -152.5t139.5 -101.5t187 -36.5t187 36t139.5 100.5t87.5 152.5t30.5 189v815q-37 1 -73.5 2t-58.5 1.5t-26 0.5q-41 2 -40 36v41h198h104h173v-41q0 -34 -41 -36 q-5 0 -19.5 -0.5t-45 -1.5t-67.5 -2v-815q0 -120 -37.5 -224t-109 -181t-173.5 -121t-228.5 -44t-228.5 44t-173.5 121t-109 181t-37.5 224v815q-37 2 -67.5 2.5t-45.5 1t-19 0.5q-41 2 -41 36zM655 1579l232 211q14 13 26.5 17.5t37.5 4.5h114l-299 -221q-10 -7 -18.5 -9.5 t-21.5 -2.5h-71z" />
<glyph unicode="&#xdb;" horiz-adv-x="1538" d="M48 1408v41h173h105h198v-41q0 -34 -40 -36q-4 0 -26 -0.5t-58.5 -1.5t-73.5 -2v-814q0 -101 30 -188.5t87 -152.5t139.5 -101.5t187 -36.5t187 36t139.5 100.5t87.5 152.5t30.5 189v815q-37 1 -73.5 2t-58.5 1.5t-26 0.5q-41 2 -40 36v41h198h104h173v-41q0 -34 -41 -36 q-5 0 -19.5 -0.5t-45 -1.5t-67.5 -2v-815q0 -120 -37.5 -224t-109 -181t-173.5 -121t-228.5 -44t-228.5 44t-173.5 121t-109 181t-37.5 224v815q-37 2 -67.5 2.5t-45.5 1t-19 0.5q-41 2 -41 36zM483 1579l240 204h93l240 -204h-75q-8 0 -17.5 2.5t-16.5 7.5l-160 126 q-8 6 -11 9l-5 6q-2 -2 -6 -5.5t-12 -9.5l-161 -126q-7 -5 -16 -7.5t-17 -2.5h-76z" />
<glyph unicode="&#xdc;" horiz-adv-x="1538" d="M48 1408v41h173h105h198v-41q0 -34 -40 -36q-4 0 -26 -0.5t-58.5 -1.5t-73.5 -2v-814q0 -101 30 -188.5t87 -152.5t139.5 -101.5t187 -36.5t187 36t139.5 100.5t87.5 152.5t30.5 189v815q-37 1 -73.5 2t-58.5 1.5t-26 0.5q-41 2 -40 36v41h198h104h173v-41q0 -34 -41 -36 q-5 0 -19.5 -0.5t-45 -1.5t-67.5 -2v-815q0 -120 -37.5 -224t-109 -181t-173.5 -121t-228.5 -44t-228.5 44t-173.5 121t-109 181t-37.5 224v815q-37 2 -67.5 2.5t-45.5 1t-19 0.5q-41 2 -41 36zM474 1705q0 16 6.5 31.5t17.5 27.5t26 18.5t31.5 6.5t32 -6.5t26.5 -18.5 t18 -27.5t7 -31.5t-7 -31t-18 -26t-26.5 -17.5t-32 -6.5t-31.5 6.5t-26 17.5t-17.5 26t-6.5 31zM900 1705q0 34 24.5 59t57.5 25q16 0 31.5 -6.5t27 -18.5t18 -27.5t6.5 -31.5t-6.5 -31t-18 -26t-26.5 -17.5t-32 -6.5t-32 6.5t-26 17.5t-17.5 26t-6.5 31z" />
<glyph unicode="&#xdd;" horiz-adv-x="1408" d="M50 1408v41h65h11h80h17h205v-41q0 -34 -40 -36q-5 0 -16 -0.5t-36 -1.5t-55 -2l380 -610q14 -24 24.5 -46t18.5 -44q8 23 18.5 44.5t24.5 45.5l380 610q-31 1 -56 2t-36 1.5t-15 0.5q-41 2 -41 36v41h206h15h81h11h65v-41q0 -34 -41 -36q-51 -3 -75 -4l-485 -770v-517 q36 -1 67 -2t46 -1.5t19 -0.5q41 -2 41 -36v-41h-173h-105h-172v41q0 34 40 36q5 0 20 1l45 1q30 1 67 2v517l-485 770q-22 1 -75 4q-41 2 -41 36zM589 1579l233 211q14 13 26.5 17.5t36.5 4.5h115l-299 -221q-10 -7 -19 -9.5t-21 -2.5h-72z" />
<glyph unicode="&#xde;" horiz-adv-x="1133" d="M171 0v1449h104v-291h270q255 0 384.5 -111.5t129.5 -318.5q0 -95 -35.5 -175t-102 -138t-161.5 -90t-215 -32h-270v-293h-104zM275 377h270q96 0 172 26.5t128.5 73.5t80.5 111t28 140q0 167 -102.5 256.5t-306.5 89.5h-270v-697z" />
<glyph unicode="&#xdf;" horiz-adv-x="1101" d="M154 0v1025q0 103 33.5 185.5t93.5 139.5t143.5 87t181.5 30q87 0 154.5 -26t114 -67.5t70 -92.5t23.5 -102q0 -63 -24 -110.5t-60.5 -84t-78.5 -65t-78.5 -56.5t-60.5 -58t-24 -68q0 -37 17 -62t45 -43.5t63.5 -33.5t73 -32t72.5 -38t63.5 -52t45 -73.5t16.5 -102.5 q0 -70 -25.5 -128t-71.5 -100t-110.5 -65t-143.5 -23q-103 0 -177.5 34t-135.5 90l22 34q5 8 12 12.5t18 4.5q13 0 32 -16.5t50 -35.5t76.5 -35.5t109.5 -16.5q60 0 107.5 18t79.5 49.5t49 73.5t17 90q0 69 -30 110t-75 67.5t-97.5 46t-97.5 45t-75 63.5t-30 103 q0 50 24.5 87t62 68.5t80.5 61.5t80 64.5t62 77t25 100.5q0 32 -14.5 69t-47 69.5t-84.5 54t-127 21.5q-73 0 -137 -22t-112 -67t-75.5 -115.5t-27.5 -166.5v-1023h-97z" />
<glyph unicode="&#xe0;" horiz-adv-x="1039" d="M76 247q0 65 36.5 120t115 96t202 65.5t296.5 28.5v107q0 141 -61 217t-181 76q-74 0 -125.5 -20.5t-87 -45t-58.5 -45t-38 -20.5q-20 0 -31 19l-17 29q80 80 168 121t200 41q82 0 143 -26t101.5 -74.5t61 -117.5t20.5 -154v-584q24 -1 46.5 -1.5t33.5 -1t15 -0.5 q41 -2 40 -36v-41h-135h-37h-2q-31 0 -38 29l-14 130q-42 -41 -83.5 -74t-86.5 -55.5t-97 -34t-115 -11.5q-52 0 -101 15t-87 47t-61 81.5t-23 119.5zM170 251q0 -51 17 -88.5t44.5 -61.5t64.5 -35.5t77 -11.5q59 0 108.5 13t92 36t79.5 54.5t73 68.5v266q-145 -4 -250 -22 t-173 -49t-100.5 -73.5t-32.5 -96.5zM273 1465h95q25 0 37 -7t23 -25l161 -244h-56q-12 0 -20.5 3.5t-16.5 13.5z" />
<glyph unicode="&#xe1;" horiz-adv-x="1039" d="M77 247q0 65 37 120t115 96t201.5 65.5t296.5 28.5v107q0 141 -61 217t-181 76q-74 0 -125.5 -20.5t-87 -45t-58 -45t-38.5 -20.5q-20 0 -31 19l-17 29q80 80 168 121t200 41q82 0 143 -26t101.5 -74.5t61 -117.5t20.5 -154v-584q24 -1 46.5 -1.5t33.5 -1t15 -0.5 q41 -2 40 -36v-41h-135h-37h-2q-31 0 -38 29l-14 130q-42 -41 -83.5 -74t-86.5 -55.5t-97 -34t-115 -11.5q-52 0 -101 15t-87 47t-61 81.5t-23 119.5zM171 251q0 -51 17 -88.5t44.5 -61.5t64.5 -35.5t77 -11.5q59 0 108.5 13t92 36t79.5 54.5t73 68.5v266q-145 -4 -250 -22 t-173 -49t-100.5 -73.5t-32.5 -96.5zM398 1189l161 244q11 18 23.5 25t37.5 7h96l-221 -259q-8 -10 -17 -13.5t-21 -3.5h-59z" />
<glyph unicode="&#xe2;" horiz-adv-x="1038" d="M76 247q0 65 36.5 120t115 96t202 65.5t296.5 28.5v107q0 141 -61 217t-181 76q-74 0 -125.5 -20.5t-87 -45t-58.5 -45t-38 -20.5q-20 0 -31 19l-17 29q80 80 168 121t200 41q82 0 143 -26t101.5 -74.5t61 -117.5t20.5 -154v-584q24 -1 46.5 -1.5t33.5 -1t15 -0.5 q41 -2 40 -36v-41h-135h-37h-2q-31 0 -38 29l-14 130q-42 -41 -83.5 -74t-86.5 -55.5t-97 -34t-115 -11.5q-52 0 -101 15t-87 47t-61 81.5t-23 119.5zM170 251q0 -51 17 -88.5t44.5 -61.5t64.5 -35.5t77 -11.5q59 0 108.5 13t92 36t79.5 54.5t73 68.5v266q-145 -4 -250 -22 t-173 -49t-100.5 -73.5t-32.5 -96.5zM218 1197l223 252h87l223 -252h-67q-16 0 -28 12l-159 167q-6 4 -12 12q-2 -4 -5 -7l-5 -5l-161 -167q-5 -5 -12 -8.5t-15 -3.5h-69z" />
<glyph unicode="&#xe3;" horiz-adv-x="1040" d="M77 247q0 65 37 120t115 96t201.5 65.5t296.5 28.5v107q0 141 -61 217t-181 76q-74 0 -125.5 -20.5t-87 -45t-58 -45t-38.5 -20.5q-20 0 -31 19l-17 29q80 80 168 121t200 41q82 0 143 -26t101.5 -74.5t61 -117.5t20.5 -154v-584q24 -1 46.5 -1.5t33.5 -1t15 -0.5 q41 -2 40 -36v-41h-135h-37h-2q-31 0 -38 29l-14 130q-42 -41 -83.5 -74t-86.5 -55.5t-97 -34t-115 -11.5q-52 0 -101 15t-87 47t-61 81.5t-23 119.5zM171 251q0 -51 17 -88.5t44.5 -61.5t64.5 -35.5t77 -11.5q59 0 108.5 13t92 36t79.5 54.5t73 68.5v266q-145 -4 -250 -22 t-173 -49t-100.5 -73.5t-32.5 -96.5zM225 1243q0 37 10.5 69.5t30 56t47 36.5t62.5 13t65 -17t57 -36.5t53 -36.5t53 -17q44 0 66.5 28t23.5 76h61q0 -37 -10 -69t-29 -55.5t-46.5 -37t-62.5 -13.5q-34 0 -64 17t-57.5 37t-54 37t-52.5 17q-43 0 -65.5 -29.5t-24.5 -75.5 h-63z" />
<glyph unicode="&#xe4;" horiz-adv-x="1041" d="M77 247q0 65 37 120t115 96t201.5 65.5t296.5 28.5v107q0 141 -61 217t-181 76q-74 0 -125.5 -20.5t-87 -45t-58 -45t-38.5 -20.5q-20 0 -31 19l-17 29q80 80 168 121t200 41q82 0 143 -26t101.5 -74.5t61 -117.5t20.5 -154v-584q24 -1 46.5 -1.5t33.5 -1t15 -0.5 q41 -2 40 -36v-41h-135h-37h-2q-31 0 -38 29l-14 130q-42 -41 -83.5 -74t-86.5 -55.5t-97 -34t-115 -11.5q-52 0 -101 15t-87 47t-61 81.5t-23 119.5zM171 251q0 -51 17 -88.5t44.5 -61.5t64.5 -35.5t77 -11.5q59 0 108.5 13t92 36t79.5 54.5t73 68.5v266q-145 -4 -250 -22 t-173 -49t-100.5 -73.5t-32.5 -96.5zM226 1315q0 17 7 32.5t18.5 27t26.5 18.5t31.5 7t32 -7t27 -18.5t18.5 -27t7 -32.5q0 -16 -7 -31t-18.5 -26.5t-27 -18t-32 -6.5t-31.5 6.5t-26.5 18t-18.5 26t-7 31.5zM576 1315q0 17 7 32.5t18.5 27t26.5 18.5t32 7q16 0 32.5 -7 t27.5 -18.5t18 -27t7 -32.5q0 -16 -7 -31t-18 -26.5t-27 -18t-33 -6.5t-32 6.5t-26.5 18t-18.5 26t-7 31.5z" />
<glyph unicode="&#xe5;" horiz-adv-x="1037" d="M75 247q0 65 36.5 120t115 96t202 65.5t296.5 28.5v107q0 141 -61 217t-181 76q-74 0 -125.5 -20.5t-87 -45t-58.5 -45t-38 -20.5q-20 0 -31 19l-17 29q80 80 168 121t200 41q82 0 143 -26t101.5 -74.5t61 -117.5t20.5 -154v-584q24 -1 46.5 -1.5t33.5 -1t15 -0.5 q41 -2 40 -36v-41h-135h-37h-2q-31 0 -38 29l-14 130q-42 -41 -83.5 -74t-86.5 -55.5t-97 -34t-115 -11.5q-52 0 -101 15t-87 47t-61 81.5t-23 119.5zM169 251q0 -51 17 -88.5t44.5 -61.5t64.5 -35.5t77 -11.5q59 0 108.5 13t92 36t79.5 54.5t73 68.5v266q-145 -4 -250 -22 t-173 -49t-100.5 -73.5t-32.5 -96.5zM307 1333q0 37 14 68t38 53t56 34.5t68 12.5t68.5 -12.5t56.5 -34.5t38 -53t14 -68t-14 -67t-38 -52.5t-56.5 -35t-68.5 -12.5t-68 12.5t-56 35t-38 52.5t-14 67zM367 1333q0 -51 32.5 -83.5t84.5 -32.5q51 0 84 32.5t33 83.5t-32.5 84 t-84.5 33t-84.5 -33t-32.5 -84z" />
<glyph unicode="&#xe6;" horiz-adv-x="1604" d="M81 264q0 66 37 123.5t115 102t201.5 72t296.5 31.5v71q0 141 -61 218t-181 77q-74 0 -125.5 -20.5t-87 -45.5t-58 -46t-38.5 -21q-11 0 -18 5.5t-12 13.5l-18 29q79 80 164.5 121t195.5 41q129 0 202.5 -66t97.5 -180q48 114 140 179.5t226 65.5q77 0 143.5 -30.5 t115.5 -89.5t77.5 -146t28.5 -201q0 -23 -5.5 -31t-19.5 -8h-676q0 -115 24.5 -201.5t70 -145t109 -88t140.5 -29.5q73 0 124 16.5t86 36.5t54.5 37t29.5 17q14 0 23 -10l24 -31q-24 -31 -61.5 -57.5t-83.5 -45.5t-98 -30t-105 -11q-134 0 -231 70.5t-145 210.5 q-20 -79 -63.5 -133t-99 -88t-117.5 -48.5t-118 -14.5q-65 0 -120 15.5t-96 49.5t-64.5 87t-23.5 128zM175 268q0 -57 17 -97.5t47.5 -66t72.5 -38t92 -12.5q68 0 127.5 22.5t104 66t70 107t25.5 144.5v133q-145 -5 -250 -25.5t-173 -54t-100.5 -79t-32.5 -100.5zM824 592 h613q0 87 -20.5 156t-57.5 116.5t-89 73t-114 25.5q-74 0 -132.5 -27t-100.5 -75t-67.5 -116.5t-31.5 -152.5z" />
<glyph unicode="&#xe7;" horiz-adv-x="937" d="M79 510q0 117 30.5 213t89.5 165.5t144.5 108t196.5 38.5q36 0 107 -16t125 -32l53 -16v-257h-50q-42 0 -44 50q0 4 -2 25t-5 57.5t-6 77.5q-98 35 -173 34q-88 0 -156.5 -31t-115 -89.5t-71 -141.5t-24.5 -186q0 -108 25 -190.5t71.5 -139.5t112 -86.5t144.5 -29.5 q74 0 124 17t82 37.5t51 38t30 17.5q14 0 21 -10l26 -33q-24 -31 -59.5 -57.5t-80.5 -46t-98 -30.5q-42 -8 -87 -10l-25 -80q91 -16 139 -47t48 -91q0 -31 -14 -55.5t-39 -41.5t-60 -26.5t-76 -9.5q-42 0 -82 12t-66 31l10 29q6 12 16 12q5 0 14 -5.5t22.5 -12t34 -12 t50.5 -5.5q52 0 81.5 22.5t29.5 61.5q0 26 -13.5 42.5t-38 27.5t-57.5 18q-34 6 -74 11l38 120q-75 6 -139 34q-80 35 -138 102t-90 164.5t-32 221.5z" />
<glyph unicode="&#xe8;" horiz-adv-x="1005" d="M73 530q0 110 31 202.5t90 159.5t144 105t194 38q86 0 159.5 -29.5t127 -86.5t84 -140t30.5 -190q0 -23 -6.5 -31t-21.5 -8h-736v-20q0 -115 26.5 -201.5t76 -145.5t119 -88.5t155.5 -29.5q77 0 133 16.5t94.5 37.5t61 38t32.5 17q13 0 21 -10l26 -33q-25 -31 -65 -57.5 t-89.5 -45.5t-106.5 -30t-114 -11q-104 0 -190.5 36t-148 106t-94.5 170.5t-33 230.5zM173 612h672q0 82 -22.5 147t-63.5 110t-98 69.5t-127 24.5q-79 0 -141.5 -25t-108 -71t-74 -110.5t-37.5 -144.5zM322 1465h94q25 0 37 -7t23 -25l161 -244h-55q-12 0 -21 3.5t-17 13.5 z" />
<glyph unicode="&#xe9;" horiz-adv-x="1006" d="M73 530q0 110 31 202.5t90 159.5t144 105t194 38q86 0 159.5 -29.5t127 -86.5t84 -140t30.5 -190q0 -23 -6.5 -31t-21.5 -8h-736v-20q0 -115 26.5 -201.5t76 -145.5t119 -88.5t155.5 -29.5q77 0 133 16.5t94.5 37.5t61 38t32.5 17q13 0 21 -10l26 -33q-25 -31 -65 -57.5 t-89.5 -45.5t-106.5 -30t-114 -11q-104 0 -190.5 36t-148 106t-94.5 170.5t-33 230.5zM173 612h672q0 82 -22.5 147t-63.5 110t-98 69.5t-127 24.5q-79 0 -141.5 -25t-108 -71t-74 -110.5t-37.5 -144.5zM445 1189l161 244q11 18 23.5 25t37.5 7h96l-221 -259 q-8 -10 -17 -13.5t-21 -3.5h-59z" />
<glyph unicode="&#xea;" horiz-adv-x="1006" d="M73 530q0 110 31 202.5t90 159.5t144 105t194 38q86 0 159.5 -29.5t127 -86.5t84 -140t30.5 -190q0 -23 -6.5 -31t-21.5 -8h-736v-20q0 -115 26.5 -201.5t76 -145.5t119 -88.5t155.5 -29.5q77 0 133 16.5t94.5 37.5t61 38t32.5 17q13 0 21 -10l26 -33q-25 -31 -65 -57.5 t-89.5 -45.5t-106.5 -30t-114 -11q-104 0 -190.5 36t-148 106t-94.5 170.5t-33 230.5zM173 612h672q0 82 -22.5 147t-63.5 110t-98 69.5t-127 24.5q-79 0 -141.5 -25t-108 -71t-74 -110.5t-37.5 -144.5zM266 1197l223 252h88l222 -252h-67q-16 0 -27 12l-160 167 q-6 4 -11 12q-2 -4 -5.5 -7t-5.5 -5l-160 -167q-5 -5 -12.5 -8.5t-15.5 -3.5h-69z" />
<glyph unicode="&#xeb;" horiz-adv-x="1009" d="M74 530q0 110 31 202.5t90 159.5t144.5 105t194.5 38q86 0 159 -29.5t126.5 -86.5t84 -140t30.5 -190q0 -23 -6.5 -31t-21.5 -8h-736v-20q0 -115 26.5 -201.5t76 -145.5t119 -88.5t155.5 -29.5q77 0 133 16.5t94.5 37.5t61 38t32.5 17q13 0 21 -10l26 -33 q-25 -31 -65 -57.5t-89.5 -45.5t-106.5 -30t-114 -11q-104 0 -190.5 36t-148 106t-94.5 170.5t-33 230.5zM174 612h672q0 82 -22.5 147t-63.5 110t-98 69.5t-127 24.5q-79 0 -141.5 -25t-108 -71t-74 -110.5t-37.5 -144.5zM274 1315q0 17 7 32.5t18.5 27t26.5 18.5t31.5 7 t32.5 -7t27 -18.5t18 -27t7 -32.5q0 -16 -7 -31t-18 -26.5t-27 -18t-32.5 -6.5t-31.5 6.5t-26.5 18t-18.5 26t-7 31.5zM625 1315q0 17 6.5 32.5t18.5 27t26.5 18.5t32.5 7q16 0 32 -7t27 -18.5t18.5 -27t7.5 -32.5q0 -16 -7.5 -31t-18.5 -26.5t-27 -18t-32 -6.5 q-17 0 -32 6.5t-27 18t-18.5 26t-6.5 31.5z" />
<glyph unicode="&#xec;" horiz-adv-x="585" d="M99 1465h95q25 0 37 -7t23 -25l161 -244h-56q-12 0 -20.5 3.5t-16.5 13.5zM111 0v41q0 34 41 36q5 0 13 0.5t33.5 1.5t60.5 2v857q-28 1 -50 2t-31 1t-15.5 0.5t-10.5 0.5q-41 2 -41 36v41h148h97v-938q28 -1 50 -2t31 -1t16 -0.5t11 -0.5q41 -2 40 -36v-41h-148h-97 h-148z" />
<glyph unicode="&#xed;" horiz-adv-x="581" d="M99 0v41q0 34 41 36q5 0 13 0.5t33.5 1.5t60.5 2v857q-28 1 -50 2t-31 1t-15.5 0.5t-10.5 0.5q-41 2 -41 36v41h148h98v-938q28 -1 50 -2t30.5 -1t15.5 -0.5t11 -0.5q41 -2 40 -36v-41h-147h-98h-148zM211 1189l161 244q11 18 23.5 25t37.5 7h96l-221 -259 q-8 -10 -17 -13.5t-21 -3.5h-59z" />
<glyph unicode="&#xee;" horiz-adv-x="576" d="M30 1197l223 252h87l222 -252h-66q-16 0 -28 12l-160 167q-6 4 -11 12q-2 -4 -5 -7l-5 -5l-161 -167q-5 -5 -12.5 -8.5t-15.5 -3.5h-68zM97 0v41q0 34 40 36q5 0 13.5 0.5t33.5 1.5t61 2v857q-28 1 -50 2t-31 1t-15.5 0.5t-11.5 0.5q-41 2 -40 36v41h148h97v-938 q28 -1 50 -2t31 -1t15.5 -0.5t10.5 -0.5q41 -2 41 -36v-41h-148h-97h-148z" />
<glyph unicode="&#xef;" horiz-adv-x="607" d="M54 1315q0 17 7 32.5t18.5 27t26.5 18.5t31.5 7t32 -7t27 -18.5t18.5 -27t7 -32.5q0 -16 -7 -31t-18.5 -26.5t-27 -18t-32 -6.5t-31.5 6.5t-26.5 18t-18.5 26t-7 31.5zM114 0v41q0 34 41 36q5 0 13 0.5t33.5 1.5t60.5 2v857q-28 1 -50 2t-31 1t-15.5 0.5t-10.5 0.5 q-41 2 -41 36v41h148h97v-938q28 -1 50 -2t31 -1t16 -0.5t11 -0.5q41 -2 40 -36v-41h-148h-97h-148zM404 1315q0 17 7 32.5t18.5 27t26.5 18.5t32 7q16 0 32.5 -7t27.5 -18.5t18 -27t7 -32.5q0 -16 -7 -31t-18 -26.5t-27 -18t-33 -6.5t-32 6.5t-26.5 18t-18.5 26t-7 31.5z " />
<glyph unicode="&#xf0;" horiz-adv-x="1072" d="M70 466q0 98 29.5 185t86.5 152t140 102.5t188 37.5q54 0 109 -14t105.5 -43t94.5 -74t77 -106q-15 185 -87 309t-184 200l-168 -148l-18 29q-7 8 -7 18t13 22l129 111q-61 34 -129.5 58t-144.5 40q-10 2 -18 9.5t-8 21.5q0 3 2.5 14t4.5 15l6 20q92 -14 181.5 -44.5 t169.5 -80.5l157 139l18 -30q5 -8 5 -16q0 -11 -13 -24l-117 -102q65 -48 118.5 -110.5t93 -143.5t61 -180.5t21.5 -219.5q0 -141 -29 -256t-87.5 -197.5t-146.5 -127t-206 -44.5q-93 0 -174.5 33t-142.5 95t-95.5 150.5t-34.5 199.5zM167 466q0 -95 28 -170t77 -126 t112.5 -78t134.5 -27q90 0 158.5 35t116 101t73 161.5t28.5 214.5q-15 52 -45.5 104t-75.5 93t-105.5 66.5t-138.5 25.5q-90 0 -158 -30.5t-113.5 -85t-68.5 -127.5t-23 -157z" />
<glyph unicode="&#xf1;" horiz-adv-x="1280" d="M101 0v41q0 34 41 36q5 0 13 0.5t33.5 1.5t60.5 2v857q-28 1 -50 2t-31 1t-15.5 0.5t-10.5 0.5q-41 2 -41 36v41h148h54q27 0 30 -26l9 -153q70 88 162.5 141.5t206.5 53.5q84 0 148 -26.5t106 -76.5t63.5 -121t21.5 -160v-570q28 -1 50 -2t31 -1t15.5 -0.5t10.5 -0.5 q41 -2 41 -36v-41h-148h-97v651q0 143 -65.5 224.5t-200.5 81.5q-100 0 -186.5 -51.5t-153.5 -141.5v-683q28 -1 49.5 -2t30.5 -1t15.5 -0.5t11.5 -0.5q41 -2 40 -36v-41h-147h-98h-148zM385 1243q0 37 10.5 69.5t30 56t47 36.5t62.5 13t65 -17t57.5 -36.5t53 -36.5 t52.5 -17q44 0 66.5 28t23.5 76h61q0 -37 -10 -69t-28.5 -55.5t-46.5 -37t-63 -13.5q-34 0 -64 17t-57.5 37t-53.5 37t-53 17q-43 0 -65.5 -29.5t-24.5 -75.5h-63z" />
<glyph unicode="&#xf2;" horiz-adv-x="1076" d="M73 510q0 120 31 216.5t91 165.5t146.5 106t196 37t196 -37t146 -106t90.5 -165.5t31 -216.5t-31 -216t-90.5 -165t-146 -105.5t-196 -36.5t-196 36.5t-146.5 105.5t-91 165t-31 216zM173 510q0 -102 23 -184.5t68.5 -141t113.5 -90t159.5 -31.5t159.5 31.5t113.5 90 t68 141t22.5 184.5q0 101 -22.5 184t-68 142t-113.5 90.5t-159.5 31.5t-159.5 -31.5t-113.5 -90.5t-68.5 -142t-23 -184zM328 1465h94q25 0 37 -7t23 -25l161 -244h-55q-12 0 -21 3.5t-17 13.5z" />
<glyph unicode="&#xf3;" horiz-adv-x="1077" d="M74 510q0 120 31 216.5t91 165.5t146.5 106t196 37t196 -37t146 -106t90.5 -165.5t31 -216.5t-31 -216t-90.5 -165t-146 -105.5t-196 -36.5t-196 36.5t-146.5 105.5t-91 165t-31 216zM174 510q0 -102 23 -184.5t68.5 -141t113.5 -90t159.5 -31.5t159.5 31.5t113.5 90 t68 141t22.5 184.5q0 101 -22.5 184t-68 142t-113.5 90.5t-159.5 31.5t-159.5 -31.5t-113.5 -90.5t-68.5 -142t-23 -184zM453 1189l160 244q11 18 23.5 25t37.5 7h96l-221 -259q-8 -10 -17 -13.5t-21 -3.5h-58z" />
<glyph unicode="&#xf4;" horiz-adv-x="1075" d="M73 510q0 120 31 216.5t91 165.5t146.5 106t196 37t196 -37t146 -106t90.5 -165.5t31 -216.5t-31 -216t-90.5 -165t-146 -105.5t-196 -36.5t-196 36.5t-146.5 105.5t-91 165t-31 216zM173 510q0 -102 23 -184.5t68.5 -141t113.5 -90t159.5 -31.5t159.5 31.5t113.5 90 t68 141t22.5 184.5q0 101 -22.5 184t-68 142t-113.5 90.5t-159.5 31.5t-159.5 -31.5t-113.5 -90.5t-68.5 -142t-23 -184zM272 1197l224 252h87l222 -252h-67q-16 0 -27 12l-160 167q-6 4 -11 12q-2 -4 -5.5 -7t-5.5 -5l-160 -167q-5 -5 -12.5 -8.5t-15.5 -3.5h-69z" />
<glyph unicode="&#xf5;" horiz-adv-x="1079" d="M75 510q0 120 31 216.5t91 165.5t146.5 106t196 37t196 -37t146 -106t91 -165.5t31.5 -216.5t-31.5 -216t-91 -165t-146 -105.5t-196 -36.5t-196 36.5t-146.5 105.5t-91 165t-31 216zM175 510q0 -102 23 -184.5t68.5 -141t114 -90t159.5 -31.5t159 31.5t113.5 90t68 141 t22.5 184.5q0 101 -22.5 184t-68 142t-113.5 90.5t-159 31.5t-159.5 -31.5t-114 -90.5t-68.5 -142t-23 -184zM281 1243q0 37 10 69.5t29.5 56t47 36.5t62.5 13t65 -17t57.5 -36.5t53 -36.5t52.5 -17q44 0 67 28t24 76h60q0 -37 -10 -69t-28.5 -55.5t-46.5 -37t-62 -13.5 t-64.5 17t-58 37t-53.5 37t-53 17q-43 0 -65.5 -29.5t-24.5 -75.5h-62z" />
<glyph unicode="&#xf6;" horiz-adv-x="1079" d="M75 510q0 120 31 216.5t91 165.5t146.5 106t196 37t196 -37t146 -106t91 -165.5t31.5 -216.5t-31.5 -216t-91 -165t-146 -105.5t-196 -36.5t-196 36.5t-146.5 105.5t-91 165t-31 216zM175 510q0 -102 23 -184.5t68.5 -141t114 -90t159.5 -31.5t159 31.5t113.5 90t68 141 t22.5 184.5q0 101 -22.5 184t-68 142t-113.5 90.5t-159 31.5t-159.5 -31.5t-114 -90.5t-68.5 -142t-23 -184zM282 1315q0 17 6.5 32.5t18 27t26.5 18.5t31.5 7t32.5 -7t27 -18.5t18.5 -27t7.5 -32.5q0 -16 -7.5 -31t-18.5 -26.5t-27 -18t-32.5 -6.5t-31.5 6.5t-26.5 18 t-18 26t-6.5 31.5zM632 1315q0 17 6.5 32.5t18.5 27t26.5 18.5t32.5 7q16 0 32 -7t27 -18.5t18.5 -27t7.5 -32.5q0 -16 -7.5 -31t-18.5 -26.5t-27 -18t-32 -6.5q-17 0 -32 6.5t-27 18t-18.5 26t-6.5 31.5z" />
<glyph unicode="&#xf7;" horiz-adv-x="1074" d="M53 649v75h962v-75h-962zM439 320.5q0 39.5 27.5 68t67.5 28.5q19 0 36.5 -8t30 -20.5t20.5 -30.5t8 -37q0 -20 -8 -37.5t-20.5 -30t-30 -20t-36.5 -7.5q-40 0 -67.5 27.5t-27.5 67zM439 1050q0 40 27.5 68t67.5 28q19 0 36.5 -8t30 -20.5t20.5 -30.5t8 -37 q0 -20 -8 -37.5t-20.5 -30t-30 -20t-36.5 -7.5q-40 0 -67.5 27.5t-27.5 67.5z" />
<glyph unicode="&#xf8;" horiz-adv-x="1106" d="M87 510q0 120 31.5 216.5t91 165.5t146 106t196.5 37q90 0 163 -25t130 -71l89 119q11 15 21 22t29 7h51l-144 -193q61 -69 93 -166t32 -218q0 -120 -31.5 -216t-90.5 -165t-145.5 -105.5t-196.5 -36.5q-165 0 -276 81l-82 -112q-13 -17 -30.5 -25t-34.5 -8h-39l138 186 q-70 69 -105.5 170t-35.5 231zM182 510q0 -106 24 -190t74 -143l516 695q-46 43 -106.5 66t-137.5 23q-91 0 -160 -32.5t-116 -91.5t-70.5 -142.5t-23.5 -184.5zM325 132q89 -71 227 -71q91 0 160 32t115 90.5t70 141.5t24 185q0 196 -82 313z" />
<glyph unicode="&#xf9;" horiz-adv-x="1217" d="M38 978v41h148h97v-651q0 -143 66 -225t200 -82q100 0 186 51t155 141v685q-28 1 -50 2t-30.5 1t-15 0.5t-11.5 0.5q-41 2 -40 36v41h147h98v-938q28 -1 50 -2t30.5 -1t15.5 -0.5t11 -0.5q41 -2 41 -36v-41h-148h-54q-28 0 -29 27l-10 151q-71 -88 -163.5 -141 t-206.5 -53q-85 0 -148.5 26.5t-105.5 76.5t-63.5 121t-21.5 160v570q-28 1 -50 2t-31 1t-15.5 0.5t-11.5 0.5q-41 2 -40 36zM382 1465h95q25 0 37 -7t23 -25l161 -244h-55q-12 0 -21 3.5t-17 13.5z" />
<glyph unicode="&#xfa;" horiz-adv-x="1217" d="M38 978v41h148h97v-651q0 -143 66 -225t200 -82q100 0 186 51t155 141v685q-28 1 -50 2t-30.5 1t-15 0.5t-11.5 0.5q-41 2 -40 36v41h147h98v-938q28 -1 50 -2t30.5 -1t15.5 -0.5t11 -0.5q41 -2 41 -36v-41h-148h-54q-28 0 -29 27l-10 151q-71 -88 -163.5 -141 t-206.5 -53q-85 0 -148.5 26.5t-105.5 76.5t-63.5 121t-21.5 160v570q-28 1 -50 2t-31 1t-15.5 0.5t-11.5 0.5q-41 2 -40 36zM506 1189l161 244q11 18 23.5 25t37.5 7h96l-221 -259q-8 -10 -17 -13.5t-21 -3.5h-59z" />
<glyph unicode="&#xfb;" horiz-adv-x="1217" d="M38 978v41h148h97v-651q0 -143 66 -225t200 -82q100 0 186 51t155 141v685q-28 1 -50 2t-30.5 1t-15 0.5t-11.5 0.5q-41 2 -40 36v41h147h98v-938q28 -1 50 -2t30.5 -1t15.5 -0.5t11 -0.5q41 -2 41 -36v-41h-148h-54q-28 0 -29 27l-10 151q-71 -88 -163.5 -141 t-206.5 -53q-85 0 -148.5 26.5t-105.5 76.5t-63.5 121t-21.5 160v570q-28 1 -50 2t-31 1t-15.5 0.5t-11.5 0.5q-41 2 -40 36zM327 1197l223 252h87l223 -252h-67q-16 0 -28 12l-159 167q-6 4 -12 12q-2 -4 -5 -7l-5 -5l-161 -167q-5 -5 -12 -8.5t-15 -3.5h-69z" />
<glyph unicode="&#xfc;" horiz-adv-x="1218" d="M39 978v41h148h97v-651q0 -143 66 -225t200 -82q100 0 186.5 51t154.5 141v685q-28 1 -50 2t-30.5 1t-15 0.5t-11.5 0.5q-41 2 -40 36v41h147h98v-938q28 -1 50 -2t30.5 -1t15.5 -0.5t11 -0.5q41 -2 41 -36v-41h-148h-54q-28 0 -29 27l-10 151q-71 -88 -163.5 -141 t-206.5 -53q-85 0 -148.5 26.5t-105.5 76.5t-63.5 121t-21.5 160v570q-28 1 -50 2t-31 1t-15.5 0.5t-10.5 0.5q-41 2 -41 36zM335 1315q0 17 7 32.5t18.5 27t26.5 18.5t31.5 7t32 -7t27 -18.5t18.5 -27t7 -32.5q0 -16 -7 -31t-18.5 -26.5t-27 -18t-32 -6.5t-31.5 6.5 t-26.5 18t-18.5 26t-7 31.5zM686 1315q0 17 6.5 32.5t18 27t26.5 18.5t32 7q16 0 32.5 -7t27.5 -18.5t18 -27t7 -32.5q0 -16 -7 -31t-18 -26.5t-27 -18t-33 -6.5t-32 6.5t-26.5 18t-18 26t-6.5 31.5z" />
<glyph unicode="&#xfd;" horiz-adv-x="1180" d="M34 978v41h68h81h1h207v-41q0 -34 -41 -36q-6 0 -13 -0.5t-32.5 -1.5t-60.5 -2l319 -736q6 -15 10 -32q5 -16 9 -32q5 16 11 32q5 16 12 32l314 736q-27 1 -49 2t-30.5 1t-15 0.5t-10.5 0.5q-41 2 -41 36v41h205h75h77v-41q0 -34 -41 -36q-5 0 -10.5 -0.5t-22.5 -1 t-38 -1.5l-551 -1267q-6 -14 -15.5 -23t-28.5 -9h-69l179 398l-396 901q-61 2 -63 3q-41 2 -40 36zM517 1189l160 244q11 18 23.5 25t37.5 7h96l-221 -259q-8 -10 -17 -13.5t-21 -3.5h-58z" />
<glyph unicode="&#xfe;" horiz-adv-x="1098" d="M171 -360v1850h97v-650q68 90 157 142.5t201 52.5q188 0 292.5 -129.5t104.5 -389.5q0 -112 -29 -208.5t-85.5 -167.5t-139 -112t-189.5 -41q-104 0 -180 40t-132 117v-504h-97zM268 223q58 -88 129.5 -124t162.5 -36q90 0 157.5 33t113.5 93t69 143.5t23 183.5 q0 227 -83.5 334t-241.5 107q-101 0 -183.5 -52.5t-146.5 -146.5v-535z" />
<glyph unicode="&#xff;" horiz-adv-x="1180" d="M34 978v41h68h81h1h207v-41q0 -34 -41 -36q-6 0 -13 -0.5t-32.5 -1.5t-60.5 -2l319 -736q6 -15 10 -32q5 -16 9 -32q5 16 11 32q5 16 12 32l314 736q-27 1 -49 2t-30.5 1t-15 0.5t-10.5 0.5q-41 2 -41 36v41h205h75h77v-41q0 -34 -41 -36q-5 0 -10.5 -0.5t-22.5 -1 t-38 -1.5l-551 -1267q-6 -14 -15.5 -23t-28.5 -9h-69l179 398l-396 901q-61 2 -63 3q-41 2 -40 36zM345 1315q0 17 6.5 32.5t18 27t26.5 18.5t31.5 7t32.5 -7t27 -18.5t18 -27t7 -32.5q0 -16 -7 -31t-18 -26.5t-27 -18t-32.5 -6.5t-31.5 6.5t-26.5 18t-18 26t-6.5 31.5z M695 1315q0 17 6.5 32.5t18.5 27t26.5 18.5t32.5 7q16 0 32 -7t27 -18.5t18.5 -27t7.5 -32.5q0 -16 -7.5 -31t-18.5 -26.5t-27 -18t-32 -6.5q-17 0 -32 6.5t-27 18t-18.5 26t-6.5 31.5z" />
<glyph unicode="&#x152;" horiz-adv-x="2236" d="M78 725q0 167 45.5 303.5t127.5 233.5t196 150t252 53q95 0 178.5 -24.5t153.5 -70.5t124.5 -112t92.5 -150v341h857v-87v-213h-50q-16 0 -25 6t-13.5 16.5t-5.5 27.5q-1 30 -8 163h-661v-586h577v-85h-577v-604h661q1 27 3 57t3 50.5t1.5 36t0.5 19.5q1 25 11.5 37.5 t33.5 12.5h49v-213v-87h-857v342q-38 -84 -92.5 -150t-124.5 -111.5t-153 -69.5t-179 -24q-138 0 -252 52t-196 149t-127.5 233t-45.5 304zM185 725q0 -153 38.5 -273.5t107.5 -204t166.5 -128t214.5 -44.5q118 0 214.5 44.5t165.5 128t107 204t38 273.5q0 151 -38 272 t-107 205.5t-166 129.5t-214 45t-214.5 -45t-166.5 -129.5t-107.5 -205t-38.5 -272.5z" />
<glyph unicode="&#x153;" horiz-adv-x="1734" d="M80 510q0 120 29.5 216.5t85.5 165.5t137 106t182 37q147 0 246.5 -78.5t142.5 -217.5q20 68 55.5 122t84 93t109.5 60t135 21q77 0 144 -30.5t116 -89.5t77.5 -146t28.5 -201q0 -23 -6 -31t-20 -8h-676q0 -115 24.5 -201.5t70.5 -145t109.5 -88t140.5 -29.5 q69 0 119.5 16.5t86 37.5t56.5 38t32 17q12 0 20 -10l26 -33q-24 -31 -61.5 -57.5t-83.5 -45.5t-98 -30t-105 -11q-138 0 -237.5 76t-144.5 226q-43 -142 -143 -222t-252 -80q-100 0 -180 36.5t-136 105.5t-85.5 165t-29.5 216zM180 510q0 -102 21 -184.5t63.5 -141t106 -90 t148.5 -31.5q84 0 147 31.5t105 90t63 141t21 184.5q0 101 -21 184t-63 142t-105 90.5t-147 31.5q-85 0 -148.5 -31.5t-106 -90.5t-63.5 -142t-21 -184zM953 592h614q0 87 -20.5 156t-58 116.5t-89.5 73t-114 25.5q-74 0 -132.5 -27t-100.5 -75t-67.5 -116.5t-31.5 -152.5z " />
<glyph unicode="&#x178;" horiz-adv-x="1408" d="M50 1408v41h65h11h80h17h205v-41q0 -34 -40 -36q-5 0 -16 -0.5t-36 -1.5t-55 -2l380 -610q14 -24 24.5 -46t18.5 -44q8 23 18.5 44.5t24.5 45.5l380 610q-31 1 -56 2t-36 1.5t-15 0.5q-41 2 -41 36v41h206h15h81h11h65v-41q0 -34 -41 -36q-51 -3 -75 -4l-485 -770v-517 q36 -1 67 -2t46 -1.5t19 -0.5q41 -2 41 -36v-41h-173h-105h-172v41q0 34 40 36q5 0 20 1l45 1q30 1 67 2v517l-485 770q-22 1 -75 4q-41 2 -41 36zM408 1705q0 16 7 31.5t18 27.5t26 18.5t31.5 6.5t31.5 -6.5t26.5 -18.5t18.5 -27.5t7 -31.5t-7 -31t-18.5 -26t-26.5 -17.5 t-31.5 -6.5t-31.5 6.5t-26 17.5t-18 26t-7 31zM834 1705q0 34 24.5 59t58.5 25q16 0 31 -6.5t27 -18.5t18.5 -27.5t6.5 -31.5t-6.5 -31t-18.5 -26t-26.5 -17.5t-31.5 -6.5t-32 6.5t-26.5 17.5t-18 26t-6.5 31z" />
<glyph unicode="&#x2c6;" horiz-adv-x="766" d="M116 1197l223 252h87l222 -252h-66q-16 0 -28 12l-160 167q-6 4 -11 12q-2 -4 -5 -7l-5 -5l-161 -167q-5 -5 -12 -8.5t-16 -3.5h-68z" />
<glyph unicode="&#x2dc;" horiz-adv-x="798" d="M136 1243q0 37 10.5 69.5t30 56t47 36.5t62.5 13t65 -17t57 -36.5t53 -36.5t53 -17q44 0 66.5 28t23.5 76h61q0 -37 -10 -69t-29 -55.5t-46.5 -37t-62.5 -13.5q-34 0 -64 17t-57.5 37t-54 37t-52.5 17q-43 0 -65.5 -29.5t-24.5 -75.5h-63z" />
<glyph unicode="&#x2000;" horiz-adv-x="916" />
<glyph unicode="&#x2001;" horiz-adv-x="1832" />
<glyph unicode="&#x2002;" horiz-adv-x="916" />
<glyph unicode="&#x2003;" horiz-adv-x="1832" />
<glyph unicode="&#x2004;" horiz-adv-x="610" />
<glyph unicode="&#x2005;" horiz-adv-x="458" />
<glyph unicode="&#x2006;" horiz-adv-x="305" />
<glyph unicode="&#x2007;" horiz-adv-x="305" />
<glyph unicode="&#x2008;" horiz-adv-x="229" />
<glyph unicode="&#x2009;" horiz-adv-x="366" />
<glyph unicode="&#x200a;" horiz-adv-x="101" />
<glyph unicode="&#x2010;" horiz-adv-x="758" d="M142 566v83h476v-83h-476z" />
<glyph unicode="&#x2011;" horiz-adv-x="758" d="M142 566v83h476v-83h-476z" />
<glyph unicode="&#x2012;" horiz-adv-x="758" d="M142 566v83h476v-83h-476z" />
<glyph unicode="&#x2013;" horiz-adv-x="1081" d="M140 556v73h806v-73h-806z" />
<glyph unicode="&#x2014;" horiz-adv-x="1603" d="M140 556v73h1328v-73h-1328z" />
<glyph unicode="&#x2018;" horiz-adv-x="420" d="M130 1237q0 80 39 153.5t101 134.5l28 -19q8 -6 8 -14q0 -7 -6 -13q-39 -52 -64.5 -103.5t-25.5 -106.5q0 -60 36 -123q5 -8 5 -17q0 -14 -15 -20l-64 -27q-22 39 -32 77.5t-10 77.5z" />
<glyph unicode="&#x2019;" horiz-adv-x="423" d="M117 1103q0 8 6 14q39 51 64.5 103t25.5 107q0 59 -36 122q-5 8 -5 16q0 14 15 21l63 26q23 -39 33 -77t10 -77q0 -80 -39 -154t-101 -134l-29 19q-7 6 -7 14z" />
<glyph unicode="&#x201a;" horiz-adv-x="445" d="M129 -229.5q0 8.5 6 14.5q39 51 64.5 103t25.5 107q0 59 -36 122q-5 8 -5 16q0 14 16 21l62 26q23 -39 33 -77t10 -77q0 -80 -39 -154t-101 -134l-29 18q-7 6 -7 14.5z" />
<glyph unicode="&#x201c;" horiz-adv-x="696" d="M130 1237q0 80 39 153.5t101 134.5l28 -19q8 -6 8 -14q0 -7 -6 -13q-39 -52 -64.5 -103.5t-25.5 -106.5q0 -60 36 -123q5 -8 5 -17q0 -14 -15 -20l-64 -27q-22 39 -32 77.5t-10 77.5zM406 1237q0 80 38.5 153.5t101.5 134.5l27 -19q8 -6 9 -14q0 -7 -7 -13 q-39 -52 -64.5 -103.5t-25.5 -106.5q0 -60 36 -123q5 -8 5 -17q0 -14 -15 -20l-64 -27q-22 39 -31.5 77.5t-9.5 77.5z" />
<glyph unicode="&#x201d;" horiz-adv-x="699" d="M117 1103q0 8 6 14q39 51 64.5 103t25.5 107q0 59 -36 122q-5 8 -5 16q0 14 15 21l63 26q23 -39 33 -77t10 -77q0 -80 -39 -154t-101 -134l-29 19q-7 6 -7 14zM392 1103q0 8 6 14q39 51 64.5 103t25.5 107q0 59 -35 122q-5 8 -6 16q0 14 16 21l62 26q23 -39 33 -77 t10 -77q0 -80 -39 -154t-101 -134l-29 19q-7 6 -7 14z" />
<glyph unicode="&#x201e;" horiz-adv-x="720" d="M129 -229.5q0 8.5 6 14.5q39 51 64.5 103t25.5 107q0 59 -36 122q-5 8 -5 16q0 14 16 21l62 26q23 -39 33 -77t10 -77q0 -80 -39 -154t-101 -134l-29 18q-7 6 -7 14.5zM404.5 -229.5q-0.5 8.5 6.5 14.5q39 51 64.5 103t25.5 107q0 59 -36 122q-5 8 -5 16q0 14 15 21 l63 26q23 -39 33 -77t10 -77q0 -80 -39 -154t-102 -134l-28 18q-7 6 -7.5 14.5z" />
<glyph unicode="&#x2022;" horiz-adv-x="858" d="M129 610q0 62 23.5 117.5t64.5 97t95.5 65t115.5 23.5q62 0 117.5 -23.5t96.5 -65t64.5 -96.5t23.5 -118q0 -61 -23.5 -115t-64.5 -95t-96.5 -64.5t-117.5 -23.5q-61 0 -115.5 23.5t-95.5 64.5t-64.5 95t-23.5 115z" />
<glyph unicode="&#x2026;" horiz-adv-x="1476" d="M142 79q0 19 7.5 36.5t20 30.5t29.5 20.5t38 7.5q19 0 36.5 -7.5t30 -20.5t20.5 -30.5t8 -36.5q0 -20 -8 -37t-20.5 -30t-30 -20t-36.5 -7q-40 0 -67.5 27t-27.5 67zM644 79q0 19 7 36.5t20 30.5t30 20.5t37 7.5q19 0 37 -7.5t30.5 -20.5t20.5 -30.5t8 -36.5 q0 -20 -8 -37t-20.5 -30t-30 -20t-37.5 -7q-40 0 -67 27t-27 67zM1147 79q0 19 7 36.5t20 30.5t30 20.5t37 7.5q19 0 36.5 -7.5t30.5 -20.5t20.5 -30.5t7.5 -36.5q0 -20 -7.5 -37t-20.5 -30t-30 -20t-37 -7q-40 0 -67 27t-27 67z" />
<glyph unicode="&#x202f;" horiz-adv-x="366" />
<glyph unicode="&#x2039;" horiz-adv-x="515" d="M103 525v14l247 387l31 -16q16 -10 16 -25q0 -12 -7 -24l-187 -300q-13 -20 -23 -30q10 -8 23 -28l187 -301q7 -11 7 -24q0 -15 -16 -25l-31 -16z" />
<glyph unicode="&#x203a;" horiz-adv-x="519" d="M123 179q0 11 7 23l187 301q6 11 12 17.5t11 10.5q-5 5 -10.5 12t-12.5 18l-187 300q-7 11 -7 24q0 16 17 25l31 16l247 -387v-14l-247 -388l-31 16q-17 9 -17 26z" />
<glyph unicode="&#x205f;" horiz-adv-x="458" />
<glyph unicode="&#x20ac;" horiz-adv-x="1283" d="M81 583v60h161q-1 20 -1.5 40t-0.5 42q0 50 3 99h-162v60h168q16 135 62 242.5t117 182t164 114.5t206 40q66 0 121.5 -11.5t103 -34t89 -56t79.5 -77.5l-32 -36q-4 -5 -9 -8.5t-13.5 -3.5t-19.5 10.5t-28.5 26t-42.5 34.5t-59.5 34.5t-80 26t-104.5 10.5q-92 0 -169 -32 t-135 -94.5t-95.5 -154.5t-53.5 -213h617v-31q0 -11 -8 -20t-25 -9h-590q-3 -48 -3 -99q0 -22 0.5 -41.5t1.5 -40.5h529v-31q0 -12 -8 -20.5t-23 -8.5h-493q13 -127 50 -223.5t94.5 -161t134 -97t169.5 -32.5q63 0 111.5 12t85.5 31t63.5 41t45 41t31.5 31.5t22 12.5 q10 0 20 -10l37 -35q-37 -47 -79.5 -85.5t-95 -66t-114 -42t-132.5 -14.5q-116 0 -210.5 40t-163.5 116.5t-112 187.5t-57 254h-166z" />
<glyph unicode="&#x2122;" horiz-adv-x="1483" d="M92 1389v60h482v-60h-203v-529h-73v529h-206zM702 860v589h59q10 0 14.5 -2t11.5 -10l223 -373l11 -30q5 16 13 30l218 373q5 8 10 10t15 2h58v-589h-63v454l5 45l-224 -389q-8 -16 -26 -17h-11q-17 0 -26 17l-228 387l5 -43v-454h-65z" />
<glyph unicode="&#xe000;" horiz-adv-x="1020" d="M0 1020h1020v-1020h-1020v1020z" />
<glyph unicode="&#xfb01;" horiz-adv-x="1204" d="M92 947v40h173v87q0 94 28 170t80.5 128.5t128 81t173.5 28.5q188 0 296 -111l2 -2l2 -2v-1q11 -12 18 -26q8 -17 7.5 -35t-8 -34t-20 -28.5t-28.5 -19.5t-34.5 -7t-35 7t-29 19.5t-19.5 28.5t-7 34.5t7 34.5q5 13 14 23q-102 57 -233 36q-97 -18 -158 -75 q-88 -83 -89 -253v-84h597v-906q37 -1 67.5 -2t45.5 -1.5t19 -0.5q41 -2 41 -36v-41h-173h-97h-172v41q0 34 40 36q5 0 20 0.5t45.5 1.5t66.5 2v833h-497v-833q36 -1 66 -2l45 -1q15 -1 19 -1q41 -2 41 -36v-41h-171h-94h-4h-169v41q0 34 41 36q4 0 18.5 0.5t44.5 1.5t65 2 v831l-143 10q-30 2 -30 25z" />
<glyph unicode="&#xfb02;" horiz-adv-x="1324" d="M93 946v40h173v67q0 90 26.5 167.5t78 134t127.5 88.5q77 32 174 31q35 0 72 -2q38 -2 73 -6q36 -3 66 -5t52 -2h74v-1230q0 -82 40 -127t122 -45q26 0 40 4q15 4 24 5q13 -1 14 -13l5 -49q-23 -11 -46 -16t-53 -5q-61 0 -107 19q-21 9 -39 20q-20 14 -36 32 q-31 33 -46 78q-14 45 -16 96v1161q-55 2 -115 8q-62 4 -110 4q-77 0 -137 -25q-60 -24 -103 -69q-41 -45 -63 -110t-22 -144v-67h294v-75h-293v-831q36 -1 67 -2t46 -1.5t19 -0.5q41 -2 41 -36v-41h-173h-96h-169v41q0 34 41 36q4 0 18.5 0.5t44.5 1.5t65 2v831l-143 10 q-30 2 -30 25z" />
<glyph unicode="&#xfb03;" horiz-adv-x="2146" d="M1670 0v41q0 34 41 36q5 0 13 0.5t33.5 1.5t60.5 2v857q-28 1 -50 2t-31 1t-15.5 0.5t-10.5 0.5q-41 2 -41 36v41h148h98v-938q28 -1 50 -2t31 -1t15.5 -0.5t10.5 -0.5q41 -2 41 -36v-41h-148h-98h-148zM1777 1370.5q0 18.5 7.5 35t19.5 29t28.5 19.5t35 7t35 -7 t28.5 -19.5t20 -29t8 -35t-8 -34.5t-20 -28.5t-28.5 -19.5t-35 -7t-35 7t-28.5 19.5t-19.5 28.5t-7.5 34.5zM876 947v40h173v129q0 87 22.5 153t63.5 110t99 66t128 22q32 0 64 -5.5t56 -15.5l-3 -47q-1 -14 -19 -15q-12 0 -33 3.5t-52 3.5q-50 0 -92.5 -15t-73.5 -48 t-48 -85.5t-17 -129.5v-126h331v-73h-329v-833q36 -1 67 -2t46 -1.5t19 -0.5q41 -2 41 -36v-41h-173h-93h-173v41q0 34 41 36q4 0 18.5 0.5t44.5 1.5t65 2v831l-143 10q-30 2 -30 25zM92 947v40h173v129q0 87 22.5 153t63.5 110t99 66t128 22q32 0 64 -5.5t56 -15.5l-3 -47 q-1 -14 -19 -15q-12 0 -33 3.5t-52 3.5q-50 0 -92.5 -15t-73.5 -48t-48 -85.5t-17 -129.5v-126h331v-73h-329v-833q36 -1 67 -2t46 -1.5t19 -0.5q41 -2 41 -36v-41h-173h-93h-173v41q0 34 41 36q4 0 18.5 0.5t44.5 1.5t65 2v831l-143 10q-30 2 -30 25z" />
<glyph unicode="&#xfb04;" horiz-adv-x="2140" d="M1668 0v41q0 34 41 36q5 0 13 0.5t33.5 1.5t60.5 2v1328q-28 1 -50 2t-31 1t-15.5 0.5t-10.5 0.5q-41 2 -41 36v41h148h98v-1409q28 -1 50 -2t30.5 -1t15.5 -0.5t11 -0.5q41 -2 40 -36v-41h-147h-98h-148zM876 947v40h173v129q0 87 22.5 153t63.5 110t99 66t128 22 q32 0 64 -5.5t56 -15.5l-3 -47q-1 -14 -19 -15q-12 0 -33 3.5t-52 3.5q-50 0 -92.5 -15t-73.5 -48t-48 -85.5t-17 -129.5v-126h331v-73h-329v-833q36 -1 67 -2t46 -1.5t19 -0.5q41 -2 41 -36v-41h-173h-93h-173v41q0 34 41 36q4 0 18.5 0.5t44.5 1.5t65 2v831l-143 10 q-30 2 -30 25zM92 947v40h173v129q0 87 22.5 153t63.5 110t99 66t128 22q32 0 64 -5.5t56 -15.5l-3 -47q-1 -14 -19 -15q-12 0 -33 3.5t-52 3.5q-50 0 -92.5 -15t-73.5 -48t-48 -85.5t-17 -129.5v-126h331v-73h-329v-833q36 -1 67 -2t46 -1.5t19 -0.5q41 -2 41 -36v-41h-173 h-93h-173v41q0 34 41 36q4 0 18.5 0.5t44.5 1.5t65 2v831l-143 10q-30 2 -30 25z" />
</font>
</defs>
</svg>
